<?xml version="1.0" standalone="no"?>
<!DOCTYPE svg PUBLIC "-//W3C//DTD SVG 1.1//EN" "http://www.w3.org/Graphics/SVG/1.1/DTD/svg11.dtd" >
<svg xmlns="http://www.w3.org/2000/svg">
<metadata>Generated by IcoMoon</metadata>
<defs>
<font id="boxicons" horiz-adv-x="1024">
<font-face units-per-em="1024" ascent="960" descent="-64" />
<missing-glyph horiz-adv-x="1024" />
<glyph unicode="&#x20;" horiz-adv-x="512" d="" />
<glyph unicode="&#xe900;" glyph-name="bx-abacus" d="M85.333 832h85.333v-768h-85.333zM853.333 832h85.333v-768h-85.333zM213.333 405.333h85.333v-42.667h85.333v42.667h85.333v-42.667h85.333v42.667h170.667v-42.667h85.333v170.667h-85.333v-42.667h-170.667v42.667h-85.333v-42.667h-85.333v42.667h-85.333v-42.667h-85.333zM213.333 789.333v-170.667h85.333v42.667h341.333v-42.667h85.333v42.667h85.333v85.333h-85.333v42.667h-85.333v-42.667h-341.333v42.667zM213.333 234.667v-128h85.333v42.667h85.333v-42.667h85.333v42.667h341.333v85.333h-341.333v42.667h-85.333v-42.667h-85.333v42.667h-85.333z" />
<glyph unicode="&#xe901;" glyph-name="bx-accessibility" d="M853.333 789.333c0-47.128-38.205-85.333-85.333-85.333s-85.333 38.205-85.333 85.333c0 47.128 38.205 85.333 85.333 85.333s85.333-38.205 85.333-85.333zM761.003 447.403l-185.387-30.933 140.373 175.488c7.467 9.344 10.667 21.376 8.832 33.195s-8.533 22.315-18.517 28.971l-256 170.667c-16.896 11.307-39.424 9.088-53.845-5.333l-170.667-170.667 60.331-60.331 145.92 145.92 110.251-73.515-114.389-143.019c-27.051 9.856-56.149 15.488-86.571 15.488-55.211 0-106.24-17.749-148.096-47.573l61.909-61.909c25.387 14.933 54.656 24.149 86.187 24.149 94.123 0 170.667-76.544 170.667-170.667 0-31.531-9.216-60.8-24.149-86.187l61.909-61.909c29.824 41.856 47.573 92.885 47.573 148.096 0 18.987-2.261 37.461-6.187 55.253l134.187 22.357v-248.277h85.333v298.667c0 12.544-5.504 24.448-15.104 32.555-9.515 8.064-22.101 11.52-34.56 9.515zM341.333 106.667c-94.123 0-170.667 76.544-170.667 170.667 0 31.531 9.216 60.8 24.149 86.187l-61.909 61.909c-29.824-41.856-47.573-92.885-47.573-148.096 0-141.184 114.816-256 256-256 55.211 0 106.24 17.749 148.096 47.573l-61.909 61.909c-25.387-14.933-54.656-24.149-86.187-24.149z" />
<glyph unicode="&#xe902;" glyph-name="bx-add-to-queue" d="M853.333 874.667h-512c-47.061 0-85.333-38.272-85.333-85.333v-512c0-47.061 38.272-85.333 85.333-85.333h512c47.061 0 85.333 38.272 85.333 85.333v512c0 47.061-38.272 85.333-85.333 85.333zM341.333 277.333v512h512l0.085-512h-512.085zM170.667 618.667h-85.333v-512c0-47.061 38.272-85.333 85.333-85.333h512v85.333h-512v512zM640 704h-85.333v-128h-128v-85.333h128v-128h85.333v128h128v85.333h-128z" />
<glyph unicode="&#xe903;" glyph-name="bx-adjust" d="M512 21.333c235.264 0 426.667 191.403 426.667 426.667s-191.403 426.667-426.667 426.667-426.667-191.403-426.667-426.667 191.403-426.667 426.667-426.667zM512 789.333c188.203 0 341.333-153.131 341.333-341.333s-153.131-341.333-341.333-341.333-341.333 153.131-341.333 341.333 153.131 341.333 341.333 341.333zM810.667 448c0 164.949-133.76 298.667-298.667 298.667v-597.333c164.907 0 298.667 133.717 298.667 298.667z" />
<glyph unicode="&#xe904;" glyph-name="bx-alarm" d="M512 789.333c-208.171 0-384-175.829-384-384s175.829-384 384-384 384 175.829 384 384-175.829 384-384 384zM512 106.667c-161.877 0-298.667 136.789-298.667 298.667s136.789 298.667 298.667 298.667 298.667-136.789 298.667-298.667-136.789-298.667-298.667-298.667zM554.667 448v170.667h-85.333v-256h256v85.333zM737.445 801.836l60.253 60.426 128.405-128.038-60.253-60.426zM285.778 801.834l-127.586-127.952-60.426 60.253 127.586 127.952z" />
<glyph unicode="&#xe905;" glyph-name="bx-alarm-add" d="M512 789.333c-208.171 0-384-175.829-384-384s175.829-384 384-384 384 175.829 384 384-175.829 384-384 384zM512 106.667c-161.877 0-298.667 136.789-298.667 298.667s136.789 298.667 298.667 298.667 298.667-136.789 298.667-298.667-136.789-298.667-298.667-298.667zM554.667 618.667h-85.333v-170.667h-170.667v-85.333h170.667v-170.667h85.333v170.667h170.667v85.333h-170.667zM865.808 673.804l-128.43 128.014 60.242 60.438 128.43-128.014zM225.384 862.117l60.425-60.254-127.589-127.95-60.425 60.254z" />
<glyph unicode="&#xe906;" glyph-name="bx-alarm-exclamation" d="M512 21.333c208.171 0 384 175.829 384 384s-175.829 384-384 384-384-175.829-384-384 175.829-384 384-384zM512 704c161.877 0 298.667-136.789 298.667-298.667s-136.789-298.667-298.667-298.667-298.667 136.789-298.667 298.667 136.789 298.667 298.667 298.667zM737.445 801.836l60.253 60.426 128.405-128.038-60.253-60.426zM225.384 862.117l60.425-60.254-127.589-127.95-60.425 60.254zM469.333 576h85.333v-213.333h-85.333zM469.333 320h85.333v-85.333h-85.333z" />
<glyph unicode="&#xe907;" glyph-name="bx-alarm-off" d="M865.808 673.804l-128.43 128.014 60.242 60.438 128.43-128.014zM926.165 94.165l-97.579 97.579c42.197 61.568 67.413 135.168 67.413 213.589 0 208.171-175.829 384-384 384-78.421 0-152.021-25.216-213.589-67.413l-46.251 46.251 33.621 33.707-60.416 60.245-33.536-33.621-33.664 33.664-60.331-60.331 768-768 60.331 60.331zM512 704c161.877 0 298.667-136.789 298.667-298.667 0-55.125-16.512-106.965-43.819-151.851l-109.184 109.184h67.669v85.333h-153.003l-17.664 17.664v153.003h-85.333v-67.669l-109.184 109.184c44.885 27.307 96.725 43.819 151.851 43.819zM183.68 600.491c-35.029-57.6-55.68-124.416-55.68-195.157 0-208.171 175.829-384 384-384 70.741 0 137.557 20.651 195.157 55.68l-62.336 62.336c-40.277-20.693-85.419-32.683-132.821-32.683-161.877 0-298.667 136.789-298.667 298.667 0 47.403 11.989 92.544 32.683 132.821l-62.336 62.336z" />
<glyph unicode="&#xe908;" glyph-name="bx-alarm-snooze" d="M512 789.333c-208.171 0-384-175.829-384-384s175.829-384 384-384 384 175.829 384 384-175.829 384-384 384zM512 106.667c-161.877 0-298.667 136.789-298.667 298.667s136.789 298.667 298.667 298.667 298.667-136.789 298.667-298.667-136.789-298.667-298.667-298.667zM865.808 673.804l-128.43 128.014 60.242 60.438 128.43-128.014zM285.778 801.834l-127.586-127.952-60.426 60.253 127.586 127.952zM632.832 509.653c8.704 13.099 9.557 29.909 2.133 43.776s-21.888 22.571-37.632 22.571h-213.333v-85.333h133.632l-126.464-189.653c-8.704-13.099-9.557-29.909-2.133-43.776s21.888-22.571 37.632-22.571h213.333v85.333h-133.632l126.464 189.653z" />
<glyph unicode="&#xe909;" glyph-name="bx-album" d="M597.333 448.299c0-47.293-38.339-85.632-85.632-85.632s-85.632 38.339-85.632 85.632c0 47.293 38.339 85.632 85.632 85.632s85.632-38.339 85.632-85.632zM512 874.667c-235.264 0-426.667-191.403-426.667-426.667s191.403-426.667 426.667-426.667 426.667 191.403 426.667 426.667-191.403 426.667-426.667 426.667zM512 106.667c-188.203 0-341.333 153.131-341.333 341.333s153.131 341.333 341.333 341.333 341.333-153.131 341.333-341.333-153.131-341.333-341.333-341.333zM512 704c-141.184 0-256-114.816-256-256h85.333c0 94.123 76.544 170.667 170.667 170.667v85.333z" />
<glyph unicode="&#xe90a;" glyph-name="bx-align-justify" d="M170.667 661.333h682.667v-85.333h-682.667zM170.667 832h682.667v-85.333h-682.667zM170.667 490.667h682.667v-85.333h-682.667zM170.667 320h682.667v-85.333h-682.667zM256 149.333h512v-85.333h-512z" />
<glyph unicode="&#xe90b;" glyph-name="bx-align-left" d="M170.667 149.333h682.667v-85.333h-682.667zM170.667 320h469.333v-85.333h-469.333zM170.667 490.667h682.667v-85.333h-682.667zM170.667 832h682.667v-85.333h-682.667zM170.667 661.333h469.333v-85.333h-469.333z" />
<glyph unicode="&#xe90c;" glyph-name="bx-align-middle" d="M170.667 149.333h682.667v-85.333h-682.667zM298.667 320h426.667v-85.333h-426.667zM170.667 490.667h682.667v-85.333h-682.667zM170.667 832h682.667v-85.333h-682.667zM298.667 661.333h426.667v-85.333h-426.667z" />
<glyph unicode="&#xe90d;" glyph-name="bx-align-right" d="M170.667 149.333h682.667v-85.333h-682.667zM384 320h469.333v-85.333h-469.333zM170.667 490.667h682.667v-85.333h-682.667zM170.667 832h682.667v-85.333h-682.667zM384 661.333h469.333v-85.333h-469.333z" />
<glyph unicode="&#xe90e;" glyph-name="bx-analyse" d="M85.333 448h85.333c0 46.336 9.003 91.136 26.752 133.205 17.109 40.704 41.728 77.184 72.96 108.416 31.36 31.36 67.883 55.936 108.459 72.96 82.603 34.816 178.389 35.285 261.547 1.749 1.963-57.387 48.427-102.997 106.283-102.997 59.136 0 106.667 47.531 106.667 106.667s-47.531 106.667-106.667 106.667c-29.397 0-55.979-11.776-75.221-30.933-103.723 41.515-222.848 40.875-325.76-2.517-50.731-21.333-96.427-52.053-135.68-91.264-39.125-39.083-69.845-84.736-91.307-135.637-22.101-52.565-33.365-108.544-33.365-166.315zM826.581 314.795c-17.109-40.619-41.685-77.141-72.96-108.416s-67.797-55.851-108.459-72.96c-82.603-34.816-178.389-35.285-261.547-1.749-1.963 57.387-48.427 102.997-106.283 102.997-59.136 0-106.667-47.531-106.667-106.667s47.531-106.667 106.667-106.667c29.397 0 55.979 11.776 75.221 30.933 50.603-20.352 104.149-30.933 159.445-30.933 57.771 0 113.707 11.264 166.272 33.408 50.859 21.461 96.555 52.181 135.68 91.307s69.845 84.779 91.307 135.637c22.144 52.608 33.408 108.544 33.408 166.315h-85.333c0-46.293-9.003-91.093-26.752-133.205zM512 641.621c-106.752 0-193.621-86.869-193.621-193.621s86.869-193.621 193.621-193.621 193.621 86.869 193.621 193.621-86.869 193.621-193.621 193.621zM512 339.712c-59.691 0-108.288 48.597-108.288 108.288s48.597 108.288 108.288 108.288 108.288-48.597 108.288-108.288-48.597-108.288-108.288-108.288z" />
<glyph unicode="&#xe90f;" glyph-name="bx-anchor" d="M938.667 320l-128 170.667-128-170.667h81.323c-18.603-105.344-104.021-190.763-209.323-209.323v294.656h85.333v85.333h-85.333v70.997c65.835 19.584 115.797 82.048 115.797 154.496 0 87.424-71.083 158.507-158.464 158.507s-158.464-71.083-158.464-158.507c0-72.448 49.963-134.912 115.797-154.496v-70.997h-85.333v-85.333h85.333v-294.656c-105.344 18.56-190.763 103.979-209.323 209.323h81.323l-128 170.667-128-170.667h88.448c21.803-165.76 167.637-298.667 338.219-298.667s316.416 132.907 338.219 298.667h88.448zM438.869 716.16c0 40.32 32.811 73.173 73.131 73.173s73.131-32.853 73.131-73.173c0-40.576-34.176-76.16-73.131-76.16s-73.131 35.584-73.131 76.16z" />
<glyph unicode="&#xe910;" glyph-name="bx-angry" d="M512 874.667c-235.264 0-426.667-191.403-426.667-426.667s191.403-426.667 426.667-426.667 426.667 191.403 426.667 426.667-191.403 426.667-426.667 426.667zM512 106.667c-188.203 0-341.333 153.131-341.333 341.333s153.131 341.333 341.333 341.333 341.333-153.131 341.333-341.333-153.131-341.333-341.333-341.333zM512 362.667c-128 0-170.667-128-170.667-128h341.333c0 0-42.667 128-170.667 128zM407.936 466.731c0.597 0.597 0.981 1.28 1.579 1.877l43.989-17.621 31.659 79.232-213.333 85.333-31.659-79.189 58.581-23.424c0-0.299-0.085-0.64-0.085-0.939 0-17.664 7.168-33.664 18.731-45.269s27.605-18.731 45.269-18.731 33.664 7.168 45.269 18.731zM538.837 530.304l31.659-79.232 44.245 17.707c0.469-0.469 0.811-1.024 1.237-1.493 11.563-11.563 27.477-18.688 45.056-18.688s33.493 7.125 45.056 18.688 18.688 27.477 18.688 45.056c0 0.128-0.043 0.299-0.043 0.427l59.136 23.637-31.659 79.232-213.376-85.333z" />
<glyph unicode="&#xe911;" glyph-name="bx-aperture" d="M512 874.667c-231.296 0-426.667-195.371-426.667-426.667s195.371-426.667 426.667-426.667 426.667 195.371 426.667 426.667-195.371 426.667-426.667 426.667zM602.155 320h-176.085l-73.515 132.011 82.731 123.989h159.403l79.829-130.645-72.363-125.355zM170.667 448c0 40.661 7.936 79.787 21.675 116.352l136.021-244.352h-131.669c-16.64 39.765-26.027 82.987-26.027 128zM694.741 576h132.523c16.683-39.765 26.069-82.987 26.069-128 0-36.011-6.101-70.827-16.939-103.765l-141.653 231.765zM776.021 661.333h-283.861l81.28 121.899c80.469-15.317 151.979-59.861 202.581-121.899zM473.301 786.816l-83.669-125.483h-5.632v-8.405l-78.080-117.12-64.853 116.395c55.467 72.661 138.624 123.52 232.235 134.613zM247.979 234.667h304.939l-72.917-126.336c-92.416 9.088-175.317 56.789-232.021 126.336zM581.973 114.347l143.232 248.107 65.877-107.776c-49.237-70.059-123.776-121.771-209.109-140.331z" />
<glyph unicode="&#xe912;" glyph-name="bx-arch" d="M341.333 21.333h42.667v298.453c0.256 21.419 7.552 128.213 128 128.213s127.744-106.795 128-128v-298.667h298.667v85.333h-42.667v682.667h42.667v85.333h-853.333v-85.333h42.667v-682.667h-42.667v-85.333h256zM810.667 789.333v-85.333h-597.333v85.333h597.333zM213.333 618.667h597.333v-512h-85.333v213.333c0 73.771-44.587 213.333-213.333 213.333s-213.333-139.563-213.333-213.333v-213.333h-85.333v512z" />
<glyph unicode="&#xe913;" glyph-name="bx-archive" d="M926.123 734.251l-127.957 127.915c-7.979 8.021-18.816 12.501-30.165 12.501h-512c-11.349 0-22.187-4.48-30.165-12.501l-127.957-127.915c-7.765-7.723-12.544-18.389-12.544-30.208v-554.709c0-47.061 38.272-85.333 85.333-85.333h682.667c47.061 0 85.333 38.272 85.333 85.333v554.709c0 11.819-4.779 22.485-12.544 30.208zM273.664 789.333h476.672l42.624-42.624h-561.92l42.624 42.624zM170.667 149.333v512.043h682.667l0.085-512.043h-682.752zM640 448h-256v85.333h-85.333v-170.667h426.667v170.667h-85.333z" />
<glyph unicode="&#xe914;" glyph-name="bx-archive-in" d="M926.123 734.208l-127.957 127.957c-7.979 8.021-18.816 12.501-30.165 12.501h-512c-11.349 0-22.187-4.48-30.165-12.501l-127.957-127.957c-7.765-7.723-12.544-18.389-12.544-30.208v-554.667c0-47.061 38.272-85.333 85.333-85.333h682.667c47.061 0 85.333 38.272 85.333 85.333v554.667c0 11.819-4.779 22.485-12.544 30.208zM273.664 789.333h476.672l42.667-42.667h-562.005l42.667 42.667zM170.667 149.333v512h682.667l0.085-512h-682.752zM597.333 576h-170.667v-128h-128l213.333-213.333 213.333 213.333h-128z" />
<glyph unicode="&#xe915;" glyph-name="bx-archive-out" d="M926.123 734.208l-127.957 127.957c-7.979 8.021-18.816 12.501-30.165 12.501h-512c-11.349 0-22.187-4.48-30.165-12.501l-127.957-127.957c-7.765-7.723-12.544-18.389-12.544-30.208v-554.667c0-47.061 38.272-85.333 85.333-85.333h682.667c47.061 0 85.333 38.272 85.333 85.333v554.667c0 11.819-4.779 22.485-12.544 30.208zM273.664 789.333h476.672l42.667-42.667h-562.005l42.667 42.667zM170.667 149.333v512h682.667l0.085-512h-682.752zM298.667 362.667h128v-128h170.667v128h128l-213.333 213.333z" />
<glyph unicode="&#xe916;" glyph-name="bx-area" d="M128 746.667v-597.333c0-47.061 38.272-85.333 85.333-85.333h597.333c47.061 0 85.333 38.272 85.333 85.333v597.333c0 47.061-38.272 85.333-85.333 85.333h-597.333c-47.061 0-85.333-38.272-85.333-85.333zM810.752 149.333h-597.419v597.333h597.333l0.085-597.333zM640 448h85.333v213.333h-213.333v-85.333h128zM512 320h-128v128h-85.333v-213.333h213.333z" />
<glyph unicode="&#xe917;" glyph-name="bx-arrow-back" d="M896 490.667h-622.336l225.835 225.835-60.331 60.331-328.832-328.832 328.832-328.832 60.331 60.331-225.835 225.835h622.336z" />
<glyph unicode="&#xe918;" glyph-name="bx-arrow-from-bottom" d="M256 192h512v-85.333h-512zM512 806.997l-286.165-286.165 60.331-60.331 183.168 183.168v-366.336h85.333v366.336l183.168-183.168 60.331 60.331z" />
<glyph unicode="&#xe919;" glyph-name="bx-arrow-from-left" d="M170.667 704h85.333v-512h-85.333zM341.333 405.333h366.336l-183.168-183.168 60.331-60.331 286.165 286.165-286.165 286.165-60.331-60.331 183.168-183.168h-366.336z" />
<glyph unicode="&#xe91a;" glyph-name="bx-arrow-from-right" d="M768 704h85.333v-512h-85.333zM682.667 490.667h-366.336l183.168 183.168-60.331 60.331-286.165-286.165 286.165-286.165 60.331 60.331-183.168 183.168h366.336z" />
<glyph unicode="&#xe91b;" glyph-name="bx-arrow-from-top" d="M256 789.333h512v-85.333h-512zM512 89.003l286.165 286.165-60.331 60.331-183.168-183.168v366.336h-85.333v-366.336l-183.168 183.168-60.331-60.331z" />
<glyph unicode="&#xe91c;" glyph-name="bx-arrow-to-bottom" d="M256 192h512v-85.333h-512zM469.333 789.333v-366.336l-183.168 183.168-60.331-60.331 286.165-286.165 286.165 286.165-60.331 60.331-183.168-183.168v366.336z" />
<glyph unicode="&#xe91d;" glyph-name="bx-arrow-to-left" d="M170.667 704h85.333v-512h-85.333zM609.835 734.165l-286.165-286.165 286.165-286.165 60.331 60.331-183.168 183.168h366.336v85.333h-366.336l183.168 183.168z" />
<glyph unicode="&#xe91e;" glyph-name="bx-arrow-to-right" d="M768 704h85.333v-512h-85.333zM170.667 405.333h366.336l-183.168-183.168 60.331-60.331 286.165 286.165-286.165 286.165-60.331-60.331 183.168-183.168h-366.336z" />
<glyph unicode="&#xe91f;" glyph-name="bx-arrow-to-top" d="M256 789.333h512v-85.333h-512zM286.165 289.835l183.168 183.168v-366.336h85.333v366.336l183.168-183.168 60.331 60.331-286.165 286.165-286.165-286.165z" />
<glyph unicode="&#xe920;" glyph-name="bx-at" d="M512 874.667c-235.264 0-426.667-191.403-426.667-426.667s191.403-426.667 426.667-426.667c62.549 0 126.336 15.829 189.525 47.104l-37.76 76.501c-51.371-25.387-102.443-38.272-151.765-38.272-188.203 0-341.333 153.131-341.333 341.333s153.131 341.333 341.333 341.333 341.333-153.131 341.333-341.333v-42.667c0-29.525-13.355-85.333-64-85.333-59.563 0-63.744 77.611-64 85.333v213.333h-85.333v-1.067c-35.755 27.051-79.787 43.733-128 43.733-117.632 0-213.333-95.701-213.333-213.333s95.701-213.333 213.333-213.333c61.867 0 117.248 26.923 156.245 69.163 22.357-37.973 60.075-69.163 121.088-69.163 96.981 0 149.333 87.936 149.333 170.667v42.667c0 235.264-191.403 426.667-426.667 426.667zM512 320c-70.571 0-128 57.429-128 128s57.429 128 128 128 128-57.429 128-128-57.429-128-128-128z" />
<glyph unicode="&#xe921;" glyph-name="bx-atom" d="M132.352 68.352c29.781-29.824 72.363-45.568 123.179-45.568 74.325 0 164.48 33.195 256.512 90.752 91.989-57.6 182.187-90.752 256.512-90.752 50.773 0 93.355 15.744 123.179 45.568 54.144 54.144 60.203 145.621 17.109 257.664-15.275 39.765-36.437 80.853-62.165 121.984 25.771 41.131 46.891 82.219 62.165 121.984 43.093 112.043 36.992 203.563-17.109 257.664-29.781 29.824-72.363 45.568-123.179 45.568-74.325 0-164.48-33.195-256.512-90.752-91.989 57.6-182.187 90.752-256.512 90.752-50.773 0-93.355-15.744-123.179-45.568-54.144-54.144-60.245-145.621-17.152-257.664 15.317-39.765 36.437-80.853 62.165-121.984-25.771-41.131-46.891-82.219-62.165-121.984-43.093-112.043-36.992-203.52 17.152-257.664zM829.141 295.381c29.397-76.373 30.208-138.709 2.219-166.699-13.653-13.653-34.773-20.565-62.848-20.565-49.792 0-112.896 21.461-179.541 58.88 36.779 28.416 73.301 60.245 108.544 95.488 34.987 34.987 66.944 71.552 95.531 108.629 14.336-25.643 26.581-51.029 36.096-75.733zM512 216.875c-42.581 30.507-85.077 65.835-125.184 105.941-40.32 40.363-76.075 82.645-106.667 125.184 30.592 42.539 66.347 84.821 106.667 125.184 40.107 40.064 82.603 75.392 125.184 105.941 42.581-30.507 85.077-65.835 125.184-105.941 40.32-40.363 76.075-82.645 106.667-125.184-30.592-42.539-66.347-84.821-106.667-125.184-40.107-40.064-82.603-75.392-125.184-105.941zM768.512 787.883c28.032 0 49.152-6.912 62.848-20.565 27.989-27.989 27.221-90.325-2.219-166.699-9.515-24.704-21.76-50.091-36.096-75.733-28.587 37.077-60.544 73.643-95.531 108.629-35.243 35.243-71.765 67.072-108.544 95.488 66.645 37.376 129.749 58.88 179.541 58.88zM194.859 600.619c-29.397 76.373-30.208 138.709-2.219 166.699 13.653 13.653 34.773 20.565 62.848 20.565 49.792 0 112.896-21.461 179.541-58.88-36.779-28.416-73.259-60.245-108.544-95.488-34.987-34.987-66.944-71.552-95.531-108.629-14.336 25.643-26.581 51.029-36.096 75.733zM194.859 295.381c9.515 24.704 21.76 50.091 36.096 75.733 28.587-37.077 60.544-73.643 95.531-108.629 35.243-35.243 71.765-67.072 108.544-95.488-66.688-37.419-129.749-58.88-179.541-58.88-28.032 0-49.152 6.912-62.848 20.565-27.989 27.989-27.179 90.325 2.219 166.699zM621.824 448c0-60.654-49.17-109.824-109.824-109.824s-109.824 49.17-109.824 109.824c0 60.654 49.17 109.824 109.824 109.824s109.824-49.17 109.824-109.824z" />
<glyph unicode="&#xe922;" glyph-name="bx-award" d="M213.333 576.043c0-81.152 32.64-154.752 85.333-208.64v-303.403c0-14.805 7.68-28.501 20.224-36.309 12.587-7.851 28.331-8.448 41.515-1.877l151.595 75.819 151.595-75.776c6.016-3.029 12.544-4.523 19.072-4.523 7.808 0 15.573 2.133 22.4 6.357 12.587 7.808 20.267 21.504 20.267 36.309v303.36c52.693 53.888 85.333 127.488 85.333 208.683 0 164.651-133.973 298.624-298.667 298.624s-298.667-133.973-298.667-298.624zM531.072 187.52c-11.989 6.016-26.155 6.016-38.187 0l-108.885-54.485v173.525c38.869-18.517 82.176-29.227 128-29.227s89.131 10.667 128 29.227v-173.483l-108.928 54.443zM512 789.333c117.589 0 213.333-95.659 213.333-213.291 0-117.675-95.701-213.376-213.333-213.376s-213.333 95.701-213.333 213.376c0 117.632 95.701 213.291 213.333 213.291z" />
<glyph unicode="&#xe923;" glyph-name="bx-badge" d="M851.84 596.437c0.981 7.424 1.493 14.848 1.493 22.229 0 101.461-91.435 182.955-192.896 169.131-29.568 52.651-85.888 86.869-148.437 86.869s-118.869-34.219-148.437-86.869c-101.675 13.824-192.896-67.669-192.896-169.131 0-7.381 0.512-14.805 1.493-22.229-52.608-29.568-86.827-85.931-86.827-148.437s34.219-118.869 86.827-148.437c-0.981-7.424-1.493-14.848-1.493-22.229 0-101.461 91.221-182.784 192.896-169.131 29.568-52.651 85.888-86.869 148.437-86.869s118.869 34.219 148.437 86.869c101.461-13.653 192.896 67.669 192.896 169.131 0 7.381-0.512 14.805-1.493 22.229 52.608 29.568 86.827 85.931 86.827 148.437s-34.219 118.869-86.827 148.437zM790.315 365.909l-47.019-12.501 18.517-44.928c4.053-9.813 6.187-20.608 6.187-31.147 0-47.061-38.272-85.333-85.333-85.333-10.539 0-21.291 2.133-31.147 6.187l-44.971 18.517-12.501-47.019c-9.856-37.12-43.605-63.019-82.048-63.019s-72.192 25.899-82.048 63.019l-12.501 47.019-44.971-18.517c-9.856-4.053-20.608-6.187-31.147-6.187-47.061 0-85.333 38.272-85.333 85.333 0 10.539 2.133 21.333 6.187 31.147l18.517 44.928-47.019 12.501c-37.12 9.899-63.019 43.648-63.019 82.091s25.899 72.192 63.019 82.091l47.019 12.501-18.517 44.928c-4.053 9.813-6.187 20.608-6.187 31.147 0 47.061 38.272 85.333 85.333 85.333 10.539 0 21.291-2.133 31.147-6.187l44.971-18.517 12.501 47.019c9.856 37.12 43.605 63.019 82.048 63.019s72.192-25.899 82.048-63.019l12.501-47.019 44.971 18.517c9.856 4.053 20.608 6.187 31.147 6.187 47.061 0 85.333-38.272 85.333-85.333 0-10.539-2.133-21.333-6.187-31.147l-18.517-44.928 47.019-12.501c37.12-9.899 63.019-43.648 63.019-82.091s-25.899-72.192-63.019-82.091z" />
<glyph unicode="&#xe924;" glyph-name="bx-badge-check" d="M172.16 299.563c-0.981-7.424-1.493-14.848-1.493-22.229 0-101.461 91.221-182.784 192.896-169.131 29.568-52.651 85.888-86.869 148.437-86.869s118.869 34.219 148.437 86.869c101.461-13.653 192.896 67.669 192.896 169.131 0 7.381-0.512 14.805-1.493 22.229 52.608 29.568 86.827 85.931 86.827 148.437s-34.219 118.869-86.827 148.437c0.981 7.424 1.493 14.848 1.493 22.229 0 101.461-91.435 182.955-192.896 169.131-29.568 52.651-85.888 86.869-148.437 86.869s-118.869-34.219-148.437-86.869c-101.675 13.824-192.896-67.669-192.896-169.131 0-7.381 0.512-14.805 1.493-22.229-52.608-29.568-86.827-85.931-86.827-148.437s34.219-118.869 86.827-148.437zM233.685 530.091l47.019 12.501-18.517 44.928c-4.053 9.813-6.187 20.608-6.187 31.147 0 47.061 38.272 85.333 85.333 85.333 10.539 0 21.291-2.133 31.147-6.187l44.971-18.517 12.501 47.019c9.856 37.12 43.605 63.019 82.048 63.019s72.192-25.899 82.048-63.019l12.501-47.019 44.971 18.517c9.856 4.053 20.608 6.187 31.147 6.187 47.061 0 85.333-38.272 85.333-85.333 0-10.539-2.133-21.333-6.187-31.147l-18.517-44.928 47.019-12.501c37.12-9.899 63.019-43.648 63.019-82.091s-25.899-72.192-63.019-82.091l-47.019-12.501 18.517-44.928c4.053-9.813 6.187-20.608 6.187-31.147 0-47.061-38.272-85.333-85.333-85.333-10.539 0-21.291 2.133-31.147 6.187l-44.971 18.517-12.501-47.019c-9.856-37.12-43.605-63.019-82.048-63.019s-72.192 25.899-82.048 63.019l-12.501 47.019-44.971-18.517c-9.856-4.053-20.608-6.187-31.147-6.187-47.061 0-85.333 38.272-85.333 85.333 0 10.539 2.133 21.333 6.187 31.147l18.517 44.928-47.019 12.501c-37.12 9.899-63.019 43.648-63.019 82.091s25.899 72.192 63.019 82.091zM671.659 503.040l-60.075 60.587-142.123-140.757-55.296 55.296-60.331-60.331 115.371-115.371z" />
<glyph unicode="&#xe925;" glyph-name="bx-ball" d="M160.299 65.28c2.944-0.768 73.643-18.176 171.435-18.176 121.557 0 293.717 27.349 423.765 157.355 227.627 227.627 142.976 580.267 139.264 595.157-3.84 15.317-15.701 27.264-31.019 31.104-2.944 0.768-74.325 18.475-172.885 18.475-121.259 0-293.077-27.307-422.827-157.312-227.797-228.224-142.507-580.693-138.752-595.627 3.84-15.275 15.744-27.179 31.019-30.976zM328.448 631.637c109.099 109.269 257.323 132.224 362.453 132.224 54.187 0 99.413-6.059 126.080-10.667 13.483-80.085 39.040-327.509-121.771-488.32-109.397-109.355-258.005-132.395-363.435-132.395-53.547 0-98.261 5.931-124.757 10.453-13.653 80.043-39.552 327.381 121.429 488.704zM311.168 307.499l60.331-60.331 76.501 76.459 76.416-76.459 60.373 60.331-76.459 76.501 67.669 67.669 76.501-76.459 60.331 60.331-76.501 76.459 76.501 76.501-60.331 60.331-76.501-76.501-76.544 76.501-60.331-60.331 76.544-76.501-67.669-67.669-76.459 76.544-60.416-60.331 76.544-76.544z" />
<glyph unicode="&#xe926;" glyph-name="bx-band-aid" d="M346.069 26.069c68.352 0 132.608 26.624 180.992 74.965l331.861 331.861c99.797 99.84 99.797 262.229 0 362.027-48.384 48.341-112.683 74.965-181.035 74.965s-132.608-26.624-180.992-74.965l-331.861-331.861c-99.797-99.84-99.797-262.229 0-362.027 48.384-48.341 112.683-74.965 181.035-74.965zM225.365 402.731l331.861 331.861c32.256 32.213 75.093 49.963 120.661 49.963 45.611 0 88.448-17.749 120.704-49.963 66.517-66.56 66.517-174.848 0-241.365l-331.861-331.861c-32.256-32.213-75.093-49.963-120.661-49.963-45.611 0-88.448 17.749-120.704 49.963-66.475 66.56-66.475 174.848 0 241.365zM426.667 448c0-23.564-19.103-42.667-42.667-42.667s-42.667 19.103-42.667 42.667c0 23.564 19.103 42.667 42.667 42.667s42.667-19.103 42.667-42.667zM682.667 448c0-23.564-19.103-42.667-42.667-42.667s-42.667 19.103-42.667 42.667c0 23.564 19.103 42.667 42.667 42.667s42.667-19.103 42.667-42.667zM554.667 320c0-23.564-19.103-42.667-42.667-42.667s-42.667 19.103-42.667 42.667c0 23.564 19.103 42.667 42.667 42.667s42.667-19.103 42.667-42.667zM554.667 576c0-23.564-19.103-42.667-42.667-42.667s-42.667 19.103-42.667 42.667c0 23.564 19.103 42.667 42.667 42.667s42.667-19.103 42.667-42.667z" />
<glyph unicode="&#xe927;" glyph-name="bx-bar-chart" d="M384 704h85.333v-597.333h-85.333zM554.667 618.667h85.333v-512h-85.333zM725.333 789.333h85.333v-682.667h-85.333zM213.333 448h85.333v-341.333h-85.333z" />
<glyph unicode="&#xe928;" glyph-name="bx-bar-chart-alt" d="M554.667 704h85.333v-469.333h-85.333zM725.333 832h85.333v-597.333h-85.333zM384 576h85.333v-341.333h-85.333zM170.667 149.333h682.667v-85.333h-682.667zM213.333 448h85.333v-213.333h-85.333z" />
<glyph unicode="&#xe929;" glyph-name="bx-bar-chart-alt-2" d="M853.333 661.333h-170.667v128c0 47.061-38.272 85.333-85.333 85.333h-170.667c-47.061 0-85.333-38.272-85.333-85.333v-213.333h-170.667c-47.061 0-85.333-38.272-85.333-85.333v-384c0-23.552 19.072-42.667 42.667-42.667h768c23.595 0 42.667 19.115 42.667 42.667v469.333c0 47.061-38.272 85.333-85.333 85.333zM170.667 490.667h170.667v-341.333h-170.667v341.333zM426.667 533.333v256h170.667v-640h-170.667v384zM853.333 149.333h-170.667v426.667h170.667v-426.667z" />
<glyph unicode="&#xe92a;" glyph-name="bx-bar-chart-square" d="M128 746.667v-597.333c0-47.061 38.272-85.333 85.333-85.333h597.333c47.061 0 85.333 38.272 85.333 85.333v597.333c0 47.061-38.272 85.333-85.333 85.333h-597.333c-47.061 0-85.333-38.272-85.333-85.333zM810.709 149.333h-597.376v597.333h597.333l0.043-597.333zM469.333 661.333h85.333v-426.667h-85.333zM640 533.333h85.333v-298.667h-85.333zM298.667 448h85.333v-213.333h-85.333z" />
<glyph unicode="&#xe92b;" glyph-name="bx-barcode" d="M853.333 789.333h-682.667c-47.061 0-85.333-38.272-85.333-85.333v-512c0-47.061 38.272-85.333 85.333-85.333h682.667c47.061 0 85.333 38.272 85.333 85.333v512c0 47.061-38.272 85.333-85.333 85.333zM170.667 192v512h682.667l0.043-512h-682.709zM256 618.667h85.333v-341.333h-85.333zM384 618.667h42.667v-341.333h-42.667zM725.333 618.667h42.667v-341.333h-42.667zM554.667 618.667h128v-341.333h-128zM469.333 618.667h42.667v-341.333h-42.667z" />
<glyph unicode="&#xe92c;" glyph-name="bx-barcode-reader" d="M213.333 661.333h85.333v-426.667h-85.333zM597.333 661.333h42.667v-426.667h-42.667zM426.667 661.333h128v-426.667h-128zM341.333 661.333h42.667v-426.667h-42.667zM682.667 661.333h128v-426.667h-128zM170.667 746.667h170.667v85.333h-170.667c-47.061 0-85.333-38.272-85.333-85.333v-170.667h85.333v170.667zM170.667 64h170.667v85.333h-170.667v170.667h-85.333v-170.667c0-47.061 38.272-85.333 85.333-85.333zM853.333 832h-170.667v-85.333h170.667v-170.667h85.333v170.667c0 47.061-38.272 85.333-85.333 85.333zM853.333 149.333h-170.667v-85.333h170.667c47.061 0 85.333 38.272 85.333 85.333v170.667h-85.333v-170.667z" />
<glyph unicode="&#xe92d;" glyph-name="bx-baseball" d="M511.573 874.667c-113.707 0-220.885-44.501-301.696-125.355-166.315-166.315-166.315-437.035 0-603.435 80.853-80.853 187.947-125.355 301.696-125.355s220.885 44.501 301.696 125.355c166.357 166.357 166.357 437.077 0 603.435-80.811 80.853-187.989 125.355-301.696 125.355zM752.939 206.208c-45.611-45.653-101.845-76.459-162.816-90.837 0 0.512-0.043 1.024-0.043 1.579 0.043 33.621 6.101 66.048 17.963 96.384l-79.488 31.104c-15.744-40.277-23.765-83.115-23.808-127.445 0-3.584 0.128-7.168 0.256-10.752-88.491 1.707-171.648 36.907-234.795 100.011-64.896 64.896-97.877 149.589-99.499 234.795 3.413-0.085 6.827-0.213 10.24-0.213 44.288 0 87.168 8.021 127.488 23.808l-31.147 79.445c-30.635-12.032-63.787-17.749-97.323-17.579 14.037 59.563 43.861 116.139 90.24 162.517 47.275 47.275 105.856 78.848 169.472 92.501-0.384-27.776-5.333-55.765-15.232-83.2l80.256-29.056c13.653 37.717 20.565 76.501 20.565 115.243 0 1.408-0.171 2.773-0.213 4.181 85.888-3.371 166.4-38.229 227.925-99.669 63.189-63.189 96-145.237 99.157-228.181-39.723 0.427-80.043-6.059-118.912-20.181l29.184-80.213c27.136 9.856 54.997 15.019 82.56 15.403-13.312-62.208-43.819-121.429-92.032-169.643zM602.112 357.12c-14.635-14.592-27.904-30.677-39.509-47.829l70.656-47.787c8.533 12.629 18.347 24.491 29.141 35.243 15.104 15.061 31.957 28.416 50.261 39.637l-44.757 72.661c-23.893-14.677-46.037-32.171-65.792-51.925zM360.789 598.443c-10.88-10.795-22.699-20.565-35.285-29.056l47.744-70.741c17.024 11.52 33.109 24.789 47.872 39.509 19.797 19.84 37.248 41.984 51.925 65.792l-72.661 44.715c-11.221-18.176-24.533-35.115-39.595-50.219z" />
<glyph unicode="&#xe92e;" glyph-name="bx-basket" d="M896 576h-60.587l-158.379 277.163-74.069-42.325 134.187-234.837h-450.304l134.229 234.837-74.112 42.325-158.379-277.163h-60.587c-13.312 0-25.813-6.229-33.92-16.768-8.064-10.581-10.752-24.32-7.253-37.12l119.424-437.931c10.112-37.035 43.989-62.848 82.347-62.848h446.848c38.315 0 72.192 25.813 82.347 62.933l119.424 437.888c3.499 12.8 0.853 26.539-7.253 37.12-8.149 10.496-20.651 16.725-33.963 16.725zM735.403 106.667c0 0 0 0 0 0v0h-446.805l-104.704 384h656.213l-104.704-384zM384 405.333h85.333v-213.333h-85.333zM554.667 405.333h85.333v-213.333h-85.333z" />
<glyph unicode="&#xe92f;" glyph-name="bx-basketball" d="M210.304 146.304c80.853-80.853 187.947-125.355 301.696-125.355s220.885 44.501 301.696 125.355c166.357 166.357 166.357 437.035 0 603.435-80.811 80.811-187.989 125.355-301.696 125.355s-220.885-44.544-301.696-125.397c-166.357-166.315-166.357-437.035 0-603.392zM525.184 789.077c71.765-2.688 139.648-27.605 196.011-71.595l-209.195-209.152-62.293 62.293c49.536 63.104 76.459 141.141 75.477 218.453zM388.693 631.637l-85.845 85.845c40.704 31.744 87.381 53.717 137.301 64.427-0.64-52.736-18.987-105.685-51.456-150.272zM327.936 571.733c-42.581-29.355-94.208-45.269-147.584-45.099 10.923 46.507 31.573 91.051 62.208 130.475l85.376-85.376zM171.136 441.771c3.285-0.085 6.571-0.597 9.856-0.597 75.691 0 149.12 24.405 208.085 69.376l62.592-62.549-209.109-209.109c-46.293 59.605-70.144 131.029-71.424 202.88zM695.68 324.651c44.459 32.341 97.28 50.688 149.675 51.456-10.453-48.939-31.787-95.915-63.872-137.259l-85.803 85.803zM721.152 178.517c-38.827-30.293-83.157-51.499-130.517-62.72-0.299 53.589 15.573 105.387 45.099 148.139l85.419-85.419zM505.941 106.581c-74.411 1.28-144.896 26.496-203.136 71.936l209.195 209.152 62.421-62.421c-47.061-61.611-70.784-139.349-68.48-218.667zM852.565 461.141c-77.099 0.768-155.008-26.027-217.941-75.435l-62.293 62.293 209.109 209.109c44.8-57.685 68.48-126.464 71.125-195.968z" />
<glyph unicode="&#xe930;" glyph-name="bx-bath" d="M896 533.333h-597.333v128c0 47.061 38.272 85.333 85.333 85.333s85.333-38.272 85.333-85.333h85.333c0 94.123-76.544 170.667-170.667 170.667s-170.667-76.544-170.667-170.667v-128h-85.333c-23.595 0-42.667-19.072-42.667-42.667v-85.333c0-111.189 71.424-205.781 170.667-241.067v-142.933h85.333v128h341.333v-128h85.333v142.933c99.243 35.285 170.667 129.877 170.667 241.067v85.333c0 23.595-19.072 42.667-42.667 42.667zM853.333 405.333c0-94.123-76.544-170.667-170.667-170.667h-341.333c-94.123 0-170.667 76.544-170.667 170.667v42.667h682.667v-42.667z" />
<glyph unicode="&#xe931;" glyph-name="bx-battery" d="M170.667 192h597.333c47.061 0 85.333 38.272 85.333 85.333v85.333h85.333v170.667h-85.333v85.333c0 47.061-38.272 85.333-85.333 85.333h-597.333c-47.061 0-85.333-38.272-85.333-85.333v-341.333c0-47.061 38.272-85.333 85.333-85.333zM170.667 618.667h597.333l0.085-341.333h-597.419v341.333z" />
<glyph unicode="&#xe932;" glyph-name="bx-bed" d="M853.333 552.235v279.765h-85.333v-85.333h-512v85.333h-85.333v-279.765c-50.773-29.568-85.333-83.968-85.333-146.901v-170.667c0-23.595 19.115-42.667 42.667-42.667h42.667v-170.667h85.333v170.667h512v-170.667h85.333v170.667h42.667c23.595 0 42.667 19.072 42.667 42.667v170.667c0 62.933-34.603 117.333-85.333 146.901zM768 661.333v-85.333h-213.333v85.333h213.333zM256 661.333h213.333v-85.333h-213.333v85.333zM853.333 277.333h-682.667v128c0 47.061 38.272 85.333 85.333 85.333h512c47.061 0 85.333-38.272 85.333-85.333v-128z" />
<glyph unicode="&#xe933;" glyph-name="bx-been-here" d="M512 874.667c-188.203 0-341.333-153.131-341.333-341.12-1.237-274.987 303.616-495.104 316.587-504.277 7.424-5.291 16.085-7.936 24.747-7.936s17.323 2.645 24.747 7.936c12.971 9.173 317.824 229.291 316.587 504.064 0 188.203-153.131 341.333-341.333 341.333zM512 117.973c-68.736 55.808-256.896 225.877-256 415.36 0 141.184 114.816 256 256 256s256-114.816 256-256.213c0.896-189.312-187.221-359.381-256-415.147zM469.333 465.664l-97.835 97.835-60.331-60.331 158.165-158.165 243.499 243.499-60.331 60.331z" />
<glyph unicode="&#xe934;" glyph-name="bx-beer" d="M853.333 704h-85.333v85.333c0 23.552-19.072 42.667-42.667 42.667h-597.333c-23.595 0-42.667-19.115-42.667-42.667v-640c0-70.571 57.429-128 128-128h426.667c70.571 0 128 57.429 128 128v42.667h85.333c47.061 0 85.333 38.272 85.333 85.333v341.333c0 47.061-38.272 85.333-85.333 85.333zM682.667 149.333c0-23.509-19.115-42.667-42.667-42.667h-426.667c-23.552 0-42.667 19.157-42.667 42.667v597.333h512v-597.333zM853.333 277.333h-85.333v341.333h85.333v-341.333zM256 661.333h85.333v-426.667h-85.333zM512 661.333h85.333v-426.667h-85.333z" />
<glyph unicode="&#xe935;" glyph-name="bx-bell" d="M810.667 380.331v153.003c0 137.259-93.227 252.885-219.52 287.659-12.501 31.488-43.051 53.675-79.147 53.675s-66.645-22.187-79.147-53.675c-126.293-34.816-219.52-150.4-219.52-287.659v-153.003l-72.832-72.832c-8.021-7.979-12.501-18.816-12.501-30.165v-85.333c0-23.595 19.072-42.667 42.667-42.667h682.667c23.595 0 42.667 19.072 42.667 42.667v85.333c0 11.349-4.48 22.187-12.501 30.165l-72.832 72.832zM810.667 234.667h-597.333v25.003l72.832 72.832c8.021 7.979 12.501 18.816 12.501 30.165v170.667c0 117.632 95.701 213.333 213.333 213.333s213.333-95.701 213.333-213.333v-170.667c0-11.349 4.48-22.187 12.501-30.165l72.832-72.832v-25.003zM512 21.333c55.936 0 102.699 35.584 120.235 85.333h-240.469c17.536-49.749 64.299-85.333 120.235-85.333z" />
<glyph unicode="&#xe936;" glyph-name="bx-bell-minus" d="M883.499 307.499l-72.832 72.832v153.003c0 137.259-93.227 252.885-219.52 287.659-12.501 31.488-43.051 53.675-79.147 53.675s-66.645-22.187-79.147-53.675c-126.293-34.816-219.52-150.4-219.52-287.659v-153.003l-72.832-72.832c-8.021-7.979-12.501-18.816-12.501-30.165v-85.333c0-23.595 19.072-42.667 42.667-42.667h682.667c23.595 0 42.667 19.072 42.667 42.667v85.333c0 11.349-4.48 22.187-12.501 30.165zM810.667 234.667h-597.333v25.003l72.832 72.832c8.021 7.979 12.501 18.816 12.501 30.165v170.667c0 117.632 95.701 213.333 213.333 213.333s213.333-95.701 213.333-213.333v-170.667c0-11.349 4.48-22.187 12.501-30.165l72.832-72.832v-25.003zM512 21.333c55.936 0 102.699 35.584 120.235 85.333h-240.469c17.536-49.749 64.299-85.333 120.235-85.333zM342.912 533.333h338.176v-85.333h-338.176z" />
<glyph unicode="&#xe937;" glyph-name="bx-bell-off" d="M512 21.333c55.936 0 102.699 35.584 120.235 85.333h-240.469c17.536-49.749 64.299-85.333 120.235-85.333zM896 192v85.333c0 11.349-4.48 22.187-12.501 30.165l-72.832 72.832v153.003c0 137.259-93.227 252.885-219.52 287.659-12.501 31.488-43.051 53.675-79.147 53.675s-66.645-22.187-79.147-53.675c-56.448-15.531-105.088-48.128-142.763-90.752l-131.925 131.925-60.331-60.331 768-768 60.331 60.331-58.112 58.112c16.256 6.059 27.947 21.333 27.947 39.723zM512 746.667c117.632 0 213.333-95.701 213.333-213.333v-170.667c0-11.349 4.48-22.187 12.501-30.165l72.832-72.832v-25.003h-25.003l-435.499 435.499c38.955 46.421 96.597 76.501 161.835 76.501zM286.165 332.501c8.021 7.979 12.501 18.816 12.501 30.165v122.837l-82.432 82.432c-1.323-11.435-2.901-22.827-2.901-34.603v-153.003l-72.832-72.832c-8.021-7.979-12.501-18.816-12.501-30.165v-85.333c0-23.595 19.072-42.667 42.667-42.667h464.171l-85.333 85.333h-336.171v25.003l72.832 72.832z" />
<glyph unicode="&#xe938;" glyph-name="bx-bell-plus" d="M554.667 659.755h-85.333v-126.421h-126.421v-85.333h126.421v-126.421h85.333v126.421h126.421v85.333h-126.421zM810.667 380.331v153.003c0 137.259-93.227 252.885-219.52 287.659-12.501 31.488-43.051 53.675-79.147 53.675s-66.645-22.187-79.147-53.675c-126.293-34.816-219.52-150.4-219.52-287.659v-153.003l-72.832-72.832c-8.021-7.979-12.501-18.816-12.501-30.165v-85.333c0-23.595 19.072-42.667 42.667-42.667h682.667c23.595 0 42.667 19.072 42.667 42.667v85.333c0 11.349-4.48 22.187-12.501 30.165l-72.832 72.832zM810.667 234.667h-597.333v25.003l72.832 72.832c8.021 7.979 12.501 18.816 12.501 30.165v170.667c0 117.632 95.701 213.333 213.333 213.333s213.333-95.701 213.333-213.333v-170.667c0-11.349 4.48-22.187 12.501-30.165l72.832-72.832v-25.003zM512 21.333c55.936 0 102.699 35.584 120.235 85.333h-240.469c17.536-49.749 64.299-85.333 120.235-85.333z" />
<glyph unicode="&#xe939;" glyph-name="bx-bible" d="M256 21.333h640v85.333h-639.488c-19.712 0.512-43.179 8.32-43.179 42.667s23.467 42.155 43.179 42.667h639.488v597.333c0 47.061-38.272 85.333-85.333 85.333h-554.667c-51.456 0-128-34.091-128-128v-597.333c0-93.909 76.544-128 128-128zM213.333 618.667v128c0 34.347 23.467 42.155 42.667 42.667h554.667v-512h-597.333v341.333zM469.333 362.667h85.333v170.667h85.333v85.333h-85.333v85.333h-85.333v-85.333h-85.333v-85.333h85.333z" />
<glyph unicode="&#xe93a;" glyph-name="bx-bitcoin" d="M341.333 405.333v-170.667h-85.333v-85.333h128v-85.333h85.333v85.333h85.333v-85.333h85.333v87.509c83.968 10.624 149.333 81.707 149.333 168.491 0 56.32-27.733 105.984-69.973 137.088 29.995 30.763 48.64 72.661 48.64 118.912 0 79.275-54.571 145.536-128 164.608v91.392h-85.333v-85.333h-85.333v85.333h-85.333v-85.333h-128v-85.333h85.333v-256zM618.667 234.667h-192v170.667h192c47.061 0 85.333-38.272 85.333-85.333s-38.272-85.333-85.333-85.333zM426.667 661.333h170.667c47.061 0 85.333-38.272 85.333-85.333s-38.272-85.333-85.333-85.333h-170.667v170.667z" />
<glyph unicode="&#xe93b;" glyph-name="bx-blanket" d="M853.333 874.667h-554.667c-117.632 0-213.333-95.701-213.333-213.333v-426.667c0-117.632 95.701-213.333 213.333-213.333h512c70.571 0 128 57.429 128 128s-57.429 128-128 128h-554.667v-85.333h554.667c23.552 0 42.667-19.115 42.667-42.667s-19.115-42.667-42.667-42.667h-512c-70.571 0-128 57.429-128 128s57.429 128 128 128h554.667c47.061 0 85.333 38.272 85.333 85.333v341.333c0 47.061-38.272 85.333-85.333 85.333zM853.333 448h-554.667c-48 0-92.331-15.915-128-42.752v256.085c0 70.571 57.429 128 128 128h554.667v-341.333z" />
<glyph unicode="&#xe93c;" glyph-name="bx-block" d="M512 874.667c-235.264 0-426.667-191.403-426.667-426.667s191.403-426.667 426.667-426.667c235.264 0 426.667 191.403 426.667 426.667s-191.403 426.667-426.667 426.667zM170.667 448c0 78.763 27.051 151.125 72.021 208.939l478.251-478.251c-57.771-44.971-130.176-72.021-208.939-72.021-188.203 0-341.333 153.131-341.333 341.333zM781.312 239.061l-478.251 478.251c57.813 44.971 130.176 72.021 208.939 72.021 188.203 0 341.333-153.131 341.333-341.333 0-78.763-27.093-151.125-72.021-208.939z" />
<glyph unicode="&#xe93d;" glyph-name="bx-bluetooth" d="M188.16 269.141l50.347-68.907 188.16 137.515v-273.749c0-15.616 8.533-29.995 22.229-37.461 6.4-3.456 13.397-5.205 20.437-5.205 8.021 0 16.085 2.261 23.083 6.784l298.667 192c11.819 7.595 19.115 20.565 19.584 34.645 0.427 14.080-6.144 27.435-17.493 35.712l-215.595 157.525 215.595 157.525c11.349 8.32 17.92 21.675 17.493 35.755-0.469 14.080-7.765 27.008-19.584 34.645l-298.667 192c-13.141 8.448-29.824 9.045-43.563 1.579-13.653-7.509-22.187-21.888-22.187-37.504v-273.749l-188.16 137.557-50.347-68.949 238.507-174.293v-9.173l-238.507-174.251zM512 753.835l180.565-116.096-180.565-131.968v248.064zM512 390.229l180.565-131.968-180.565-116.096v248.064z" />
<glyph unicode="&#xe93e;" glyph-name="bx-body" d="M597.333 789.333c0-47.128-38.205-85.333-85.333-85.333s-85.333 38.205-85.333 85.333c0 47.128 38.205 85.333 85.333 85.333s85.333-38.205 85.333-85.333zM640 21.333v554.667h213.333v85.333h-682.667v-85.333h213.333v-554.667h85.333v298.667h85.333v-298.667z" />
<glyph unicode="&#xe93f;" glyph-name="bx-bold" d="M727.936 481.28c24.747 32.341 40.064 72.277 40.064 116.053 0 105.856-86.144 192-192 192h-320v-640h341.333c105.856 0 192 86.144 192 192 0 55.339-23.893 104.875-61.397 139.947zM576 661.333c35.285 0 64-28.715 64-64s-28.715-64-64-64h-192v128h192zM597.333 277.333h-213.333v128h213.333c35.285 0 64-28.715 64-64s-28.715-64-64-64z" />
<glyph unicode="&#xe940;" glyph-name="bx-bolt-circle" d="M512 874.667c-235.264 0-426.667-191.403-426.667-426.667s191.403-426.667 426.667-426.667 426.667 191.403 426.667 426.667-191.403 426.667-426.667 426.667zM512 106.667c-188.203 0-341.333 153.131-341.333 341.333s153.131 341.333 341.333 341.333 341.333-153.131 341.333-341.333-153.131-341.333-341.333-341.333zM554.667 704l-256-298.667h170.667v-213.333l256 298.667h-170.667z" />
<glyph unicode="&#xe941;" glyph-name="bx-bomb" d="M896 831.957c-59.733 0-110.251-49.792-115.499-55.168l-46.336-46.336-46.549 46.421c-16.683 16.64-43.605 16.64-60.288-0.043l-53.035-53.077c-40.448 15.232-82.773 22.912-126.293 22.912-199.979 0-362.667-162.688-362.667-362.667s162.688-362.667 362.667-362.667 362.667 162.688 362.667 362.667c0 38.784-6.144 76.8-18.261 113.408l57.387 57.387c7.979 7.979 12.501 18.859 12.501 30.165 0 11.349-4.48 22.187-12.544 30.208l-55.168 55.040 46.421 46.421c9.771 9.771 36.053 29.995 54.997 29.995h42.667v85.333h-42.667zM703.531 491.563c14.464-34.304 21.803-70.485 21.803-107.563 0-152.917-124.416-277.333-277.333-277.333s-277.333 124.416-277.333 277.333 124.416 277.333 277.333 277.333c40.96 0 80.64-8.96 117.845-26.624 16.256-7.723 35.712-4.395 48.469 8.363l43.264 43.264 101.717-101.419-46.592-46.592c-12.331-12.245-15.915-30.763-9.173-46.763zM256 384c0-51.285 19.968-99.499 56.235-135.765l60.331 60.331c-20.139 20.181-31.232 46.933-31.232 75.435s11.093 55.253 31.232 75.435c20.139 20.139 46.933 31.232 75.435 31.232v85.333c-51.285 0-99.541-19.968-135.765-56.235-36.267-36.267-56.235-84.48-56.235-135.765z" />
<glyph unicode="&#xe942;" glyph-name="bx-bone" d="M812.757 748.757c-7.595 29.099-22.613 55.595-43.861 76.843-64.427 64.427-176.896 64.427-241.323 0-56.107-56.107-64.896-141.952-26.368-207.36l-158.464-158.464c-64.213 37.973-153.216 27.691-207.36-26.368-66.56-66.56-66.56-174.848 0-241.365 21.248-21.248 47.744-36.309 76.8-43.861 7.595-29.056 22.613-55.552 43.861-76.8 32.213-32.299 75.051-50.048 120.661-50.048 45.568 0 88.405 17.749 120.661 50.005 56.064 56.107 64.896 141.909 26.325 207.317l158.464 158.464c64.299-38.016 153.301-27.733 207.403 26.411 66.56 66.56 66.56 174.805 0 241.323-21.205 21.291-47.744 36.309-76.8 43.904zM829.269 523.861c-32.256-32.213-88.448-32.256-120.704 0l-30.165 30.165-271.488-271.531 30.165-30.165c33.237-33.237 33.237-87.424 0-120.661-32.299-32.299-88.491-32.213-120.704 0-18.731 18.731-23.637 40.747-24.363 55.893l-2.005 38.4-38.4 2.005c-15.104 0.768-37.12 5.632-55.893 24.363-33.28 33.28-33.28 87.424 0 120.704 16.085 16.085 37.504 24.96 60.288 24.96s44.203-8.875 60.331-24.96l30.165-30.165 271.531 271.488-30.165 30.165c-33.28 33.28-33.28 87.424 0 120.704 32.256 32.171 88.405 32.171 120.661 0 14.635-14.635 23.296-34.517 24.405-55.979l2.048-38.272 38.272-2.048c21.461-1.109 41.344-9.771 55.979-24.405 16.085-16.128 24.96-37.547 24.96-60.331s-8.832-44.203-24.917-60.331z" />
<glyph unicode="&#xe943;" glyph-name="bx-bong" d="M823.168 606.165l-88.277-88.277c-26.283 29.525-58.197 54.272-94.891 71.723v199.723h42.667v85.333h-341.333v-85.333h42.667v-199.723c-103.211-48.981-170.667-153.771-170.667-269.611 0-164.651 134.016-298.667 298.667-298.667s298.667 134.016 298.667 298.667c0 44.16-9.941 86.699-27.819 125.184l100.651 100.651-60.331 60.331zM440.917 520.917l28.416 10.027v258.389h85.333v-258.389l28.416-10.027c71.296-25.259 122.496-86.229 137.387-158.251h-416.939c14.891 72.021 66.091 132.992 137.387 158.251zM512 106.667c-102.997 0-189.227 73.429-208.981 170.667h418.005c-19.797-97.237-106.027-170.667-209.024-170.667z" />
<glyph unicode="&#xe944;" glyph-name="bx-book" d="M256 21.333h640v85.333h-639.488c-19.712 0.512-43.179 8.32-43.179 42.667s23.467 42.155 43.179 42.667h639.488v597.333c0 47.061-38.272 85.333-85.333 85.333h-554.667c-51.456 0-128-34.091-128-128v-597.333c0-93.909 76.544-128 128-128zM213.333 618.667v128c0 34.347 23.467 42.155 42.667 42.667h554.667v-512h-597.333v341.333zM341.333 704h384v-85.333h-384z" />
<glyph unicode="&#xe945;" glyph-name="bx-book-add" d="M128 618.667v-469.333c0-93.909 76.544-128 128-128h640v85.333h-639.488c-19.712 0.512-43.179 8.277-43.179 42.667 0 4.309 0.384 8.149 1.024 11.648 4.779 24.576 24.917 30.592 42.155 31.019h639.488v597.333c0 47.061-38.272 85.333-85.333 85.333h-554.667c-51.456 0-128-34.091-128-128v-128zM256 789.333h554.667v-512h-597.333v469.333c0 34.389 23.467 42.155 42.667 42.667zM469.333 362.667h85.333v128h128v85.333h-128v128h-85.333v-128h-128v-85.333h128z" />
<glyph unicode="&#xe946;" glyph-name="bx-book-alt" d="M810.667 874.667h-554.667c-51.456 0-128-34.091-128-128v-597.333c0-93.909 76.544-128 128-128h640v85.333h-639.488c-19.712 0.512-43.179 8.277-43.179 42.667s23.467 42.155 43.179 42.667h639.488v597.333c0 47.061-38.272 85.333-85.333 85.333zM810.667 277.333h-597.333v469.333c0 34.389 23.467 42.155 42.667 42.667h554.667v-512z" />
<glyph unicode="&#xe947;" glyph-name="bx-book-bookmark" d="M810.667 874.24h-554.667c-51.456 0-128-34.091-128-128v-597.333c0-93.909 76.544-128 128-128h640v85.333h-639.488c-19.712 0.512-43.179 8.32-43.179 42.667 0 4.309 0.384 8.149 1.024 11.648 4.779 24.533 24.875 30.592 42.112 31.019h596.864c0.768 0 1.323 0.384 2.091 0.427h40.576v596.907c0 47.061-38.272 85.333-85.333 85.333zM810.667 276.907h-597.333v469.333c0 34.389 23.467 42.155 42.667 42.667h298.667v-298.667l85.333 42.667 85.333-42.667v298.667h85.333v-512z" />
<glyph unicode="&#xe948;" glyph-name="bx-book-content" d="M853.333 832h-682.667c-47.061 0-85.333-38.272-85.333-85.333v-597.333c0-47.061 38.272-85.333 85.333-85.333h682.667c47.061 0 85.333 38.272 85.333 85.333v597.333c0 47.061-38.272 85.333-85.333 85.333zM170.667 149.333v597.333h298.667v-597.333h-298.667zM554.667 149.333v597.333h298.667l0.043-597.333h-298.709zM640 661.333h128v-85.333h-128zM640 490.667h128v-85.333h-128z" />
<glyph unicode="&#xe949;" glyph-name="bx-book-heart" d="M128 618.667v-469.333c0-93.909 76.544-128 128-128h640v85.333h-639.488c-19.712 0.512-43.179 8.277-43.179 42.667s23.467 42.155 43.179 42.667h639.488v597.333c0 47.061-38.272 85.333-85.333 85.333h-554.667c-51.456 0-128-34.091-128-128v-128zM256 789.333h554.667v-512h-597.333v469.333c0 34.389 23.467 42.155 42.667 42.667zM511.872 362.667l142.933 140.331c37.163 36.437 37.163 94.293 0 130.944-37.333 36.48-96.213 36.48-133.376 0l-9.557-9.301-9.557 9.344c-37.12 36.48-96 36.48-133.333 0-37.163-36.651-37.163-94.507 0-130.944l142.891-140.373z" />
<glyph unicode="&#xe94a;" glyph-name="bx-bookmark" d="M768 874.667h-512c-47.061 0-85.333-38.272-85.333-85.333v-768l341.333 195.072 341.333-195.072v768c0 47.061-38.272 85.333-85.333 85.333zM768 168.405l-256 146.261-256-146.261v620.928h512v-620.928z" />
<glyph unicode="&#xe94b;" glyph-name="bx-bookmark-alt" d="M789.333 874.667h-512c-82.347 0-149.333-66.987-149.333-149.333v-704l298.667 149.333 298.667-149.333v384h213.333v320c0 82.347-66.987 149.333-149.333 149.333zM640 159.403l-213.333 106.667-213.333-106.667v565.931c0 35.285 28.715 64 64 64h377.685c-9.344-19.456-15.019-41.003-15.019-64v-565.931zM853.333 490.667h-128v234.667c0 35.285 28.715 64 64 64s64-28.715 64-64v-234.667z" />
<glyph unicode="&#xe94c;" glyph-name="bx-bookmark-alt-minus" d="M789.333 874.667h-512c-82.347 0-149.333-66.987-149.333-149.333v-704l298.667 149.333 298.667-149.333v384h213.333v320c0 82.347-66.987 149.333-149.333 149.333zM640 159.403l-213.333 106.667-213.333-106.667v565.931c0 35.285 28.715 64 64 64h377.685c-9.344-19.456-15.019-41.003-15.019-64v-565.931zM853.333 490.667h-128v234.667c0 35.285 28.715 64 64 64s64-28.715 64-64v-234.667zM298.667 576h256v-85.333h-256v85.333z" />
<glyph unicode="&#xe94d;" glyph-name="bx-bookmark-alt-plus" d="M789.333 874.667h-512c-82.347 0-149.333-66.987-149.333-149.333v-704l298.667 149.333 298.667-149.333v384h213.333v320c0 82.347-66.987 149.333-149.333 149.333zM640 159.403l-213.333 106.667-213.333-106.667v565.931c0 35.285 28.715 64 64 64h377.685c-9.344-19.456-15.019-41.003-15.019-64v-565.931zM853.333 490.667h-128v234.667c0 35.285 28.715 64 64 64s64-28.715 64-64v-234.667zM469.333 661.333h-85.333v-85.333h-85.333v-85.333h85.333v-85.333h85.333v85.333h85.333v85.333h-85.333z" />
<glyph unicode="&#xe94e;" glyph-name="bx-bookmark-heart" d="M853.333 21.333v768c0 47.061-38.272 85.333-85.333 85.333h-512c-47.061 0-85.333-38.272-85.333-85.333v-768l341.333 195.072 341.333-195.072zM256 533.333v256h512v-620.928l-256 146.261-256-146.261v364.928zM657.451 554.155c15.403 15.872 24.96 37.888 24.96 62.123s-9.515 46.208-24.96 62.123c-15.403 15.872-36.693 25.728-60.245 25.728 0 0-42.496 0.128-85.205-43.904-42.709 44.032-85.205 43.904-85.205 43.904-23.552 0-44.843-9.813-60.245-25.728-15.445-15.915-24.96-37.845-24.96-62.123s9.515-46.251 24.96-62.123l145.451-157.483 145.451 157.483z" />
<glyph unicode="&#xe94f;" glyph-name="bx-bookmark-minus" d="M341.333 576h341.333v-85.333h-341.333zM853.333 21.333v768c0 47.061-38.272 85.333-85.333 85.333h-512c-47.061 0-85.333-38.272-85.333-85.333v-768l341.333 195.072 341.333-195.072zM256 533.333v256h512v-620.928l-256 146.261-256-146.261v364.928z" />
<glyph unicode="&#xe950;" glyph-name="bx-bookmark-plus" d="M554.667 362.667v128h128v85.333h-128v128h-85.333v-128h-128v-85.333h128v-128zM853.333 21.333v768c0 47.061-38.272 85.333-85.333 85.333h-512c-47.061 0-85.333-38.272-85.333-85.333v-768l341.333 195.072 341.333-195.072zM256 533.333v256h512v-620.928l-256 146.261-256-146.261v364.928z" />
<glyph unicode="&#xe951;" glyph-name="bx-bookmarks" d="M597.333 746.667h-341.333c-47.061 0-85.333-38.272-85.333-85.333v-682.667l256 153.643 256-153.643v682.667c0 47.061-38.272 85.333-85.333 85.333zM597.333 129.408l-170.667 102.357-170.667-102.357v531.925h341.333v-531.925zM768 917.333h-341.333c-47.061 0-85.333-38.272-85.333-85.333h341.333c47.061 0 85.333-38.272 85.333-85.333v-445.568l85.333-106.197v637.099c0 47.061-38.272 85.333-85.333 85.333z" />
<glyph unicode="&#xe952;" glyph-name="bx-book-open" d="M896 832h-298.667c-32.896 0-62.635-12.843-85.333-33.28-22.699 20.437-52.437 33.28-85.333 33.28h-298.667c-23.595 0-42.667-19.115-42.667-42.667v-640c0-23.595 19.072-42.667 42.667-42.667h245.675c22.443 0 44.459-9.131 60.331-25.003l47.829-47.829c0.384-0.384 0.896-0.512 1.28-0.896 3.669-3.371 7.765-6.357 12.544-8.363 0.043 0 0.043 0 0.085 0 5.163-2.133 10.667-3.243 16.256-3.243s11.093 1.109 16.256 3.243c0.043 0 0.043 0 0.085 0 4.779 2.005 8.875 4.992 12.544 8.363 0.384 0.384 0.896 0.512 1.28 0.896l47.829 47.829c15.872 15.872 37.888 25.003 60.331 25.003h245.675c23.595 0 42.667 19.072 42.667 42.667v640c0 23.552-19.072 42.667-42.667 42.667zM373.675 192h-203.008v554.667h256c23.552 0 42.667-19.157 42.667-42.667v-541.397c-28.075 18.901-61.568 29.397-95.659 29.397zM853.333 192h-203.008c-34.091 0-67.584-10.496-95.659-29.397v541.397c0 23.509 19.115 42.667 42.667 42.667h256v-554.667z" />
<glyph unicode="&#xe953;" glyph-name="bx-book-reader" d="M896 618.667c-8.619 0-206.933-1.237-384-85.675-177.067 84.437-375.381 85.675-384 85.675-23.595 0-42.667-19.072-42.667-42.667v-421.675c0-11.563 4.693-22.613 13.013-30.677 8.32-8.021 20.48-13.013 31.104-11.947l5.419 0.043c29.141 0 183.296-4.181 359.083-86.4 0.683-0.341 1.451-0.213 2.133-0.469 5.077-2.091 10.411-3.541 15.915-3.541s10.837 1.451 15.957 3.541c0.683 0.256 1.451 0.128 2.133 0.469 175.787 82.261 329.941 86.4 359.083 86.4l5.419-0.043c10.155-1.067 22.741 3.925 31.104 11.947 8.277 8.064 12.971 19.157 12.971 30.677v421.675c0 23.595-19.072 42.667-42.667 42.667zM170.667 531.243c63.36-4.736 186.923-20.48 298.667-72.192v-330.325c-128 50.133-238.507 63.744-298.667 67.243v335.275zM853.333 195.968c-60.16-3.499-170.667-17.109-298.667-67.243v330.325c111.744 51.712 235.307 67.456 298.667 72.192v-335.275zM640 746.667c0-70.692-57.308-128-128-128s-128 57.308-128 128c0 70.692 57.308 128 128 128s128-57.308 128-128z" />
<glyph unicode="&#xe954;" glyph-name="bx-border-all" d="M384 64h512v768h-768v-768h256zM810.667 234.667v-85.333h-256v256h256v-170.667zM640 746.667h170.667v-256h-256v256h85.333zM213.333 661.333v85.333h256v-256h-256v170.667zM213.333 149.333v256h256v-256h-256z" />
<glyph unicode="&#xe955;" glyph-name="bx-border-bottom" d="M128 661.333h85.333v-85.333h-85.333zM128 490.667h85.333v-85.333h-85.333zM128 320h85.333v-85.333h-85.333zM128 832h85.333v-85.333h-85.333zM469.333 832h85.333v-85.333h-85.333zM298.667 832h85.333v-85.333h-85.333zM640 832h85.333v-85.333h-85.333zM810.667 832h85.333v-85.333h-85.333zM810.667 320h85.333v-85.333h-85.333zM810.667 490.667h85.333v-85.333h-85.333zM810.667 661.333h85.333v-85.333h-85.333zM640 490.667h85.333v-85.333h-85.333zM298.667 490.667h85.333v-85.333h-85.333zM469.333 661.333h85.333v-85.333h-85.333zM469.333 320h85.333v-85.333h-85.333zM469.333 490.667h85.333v-85.333h-85.333zM725.333 149.333h-597.333v-85.333h768v85.333h-85.333z" />
<glyph unicode="&#xe956;" glyph-name="bx-border-inner" d="M810.667 149.333h85.333v-85.333h-85.333zM298.667 149.333h85.333v-85.333h-85.333zM640 149.333h85.333v-85.333h-85.333zM128 149.333h85.333v-85.333h-85.333zM128 320h85.333v-85.333h-85.333zM128 661.333h85.333v-85.333h-85.333zM128 832h85.333v-85.333h-85.333zM640 832h85.333v-85.333h-85.333zM298.667 832h85.333v-85.333h-85.333zM810.667 832h85.333v-85.333h-85.333zM810.667 320h85.333v-85.333h-85.333zM810.667 661.333h85.333v-85.333h-85.333zM213.333 405.333h256v-341.333h85.333v341.333h341.333v85.333h-341.333v341.333h-85.333v-341.333h-341.333v-85.333h82.347z" />
<glyph unicode="&#xe957;" glyph-name="bx-border-left" d="M469.333 832h85.333v-85.333h-85.333zM640 832h85.333v-85.333h-85.333zM298.667 832h85.333v-85.333h-85.333zM810.667 832h85.333v-85.333h-85.333zM810.667 490.667h85.333v-85.333h-85.333zM810.667 320h85.333v-85.333h-85.333zM810.667 661.333h85.333v-85.333h-85.333zM810.667 149.333h85.333v-85.333h-85.333zM640 149.333h85.333v-85.333h-85.333zM298.667 149.333h85.333v-85.333h-85.333zM469.333 149.333h85.333v-85.333h-85.333zM469.333 320h85.333v-85.333h-85.333zM469.333 661.333h85.333v-85.333h-85.333zM640 490.667h85.333v-85.333h-85.333zM298.667 490.667h85.333v-85.333h-85.333zM469.333 490.667h85.333v-85.333h-85.333zM128 746.667v-682.667h85.333v768h-85.333z" />
<glyph unicode="&#xe958;" glyph-name="bx-border-none" d="M810.667 149.333h85.333v-85.333h-85.333zM469.333 149.333h85.333v-85.333h-85.333zM640 149.333h85.333v-85.333h-85.333zM298.667 149.333h85.333v-85.333h-85.333zM128 149.333h85.333v-85.333h-85.333zM128 661.333h85.333v-85.333h-85.333zM128 320h85.333v-85.333h-85.333zM128 490.667h85.333v-85.333h-85.333zM128 832h85.333v-85.333h-85.333zM298.667 832h85.333v-85.333h-85.333zM469.333 832h85.333v-85.333h-85.333zM640 832h85.333v-85.333h-85.333zM810.667 832h85.333v-85.333h-85.333zM810.667 661.333h85.333v-85.333h-85.333zM810.667 490.667h85.333v-85.333h-85.333zM810.667 320h85.333v-85.333h-85.333zM469.333 661.333h85.333v-85.333h-85.333zM469.333 320h85.333v-85.333h-85.333zM298.667 490.667h85.333v-85.333h-85.333zM640 490.667h85.333v-85.333h-85.333zM469.333 490.667h85.333v-85.333h-85.333z" />
<glyph unicode="&#xe959;" glyph-name="bx-border-outer" d="M469.333 661.333h85.333v-85.333h-85.333zM469.333 320h85.333v-85.333h-85.333zM298.667 490.667h85.333v-85.333h-85.333zM640 490.667h85.333v-85.333h-85.333zM469.333 490.667h85.333v-85.333h-85.333zM810.667 832h-682.667v-768h768v768h-85.333zM810.667 661.333v-512h-597.333v597.333h597.333v-85.333z" />
<glyph unicode="&#xe95a;" glyph-name="bx-border-radius" d="M810.667 149.333h85.333v-85.333h-85.333zM298.667 149.333h85.333v-85.333h-85.333zM640 149.333h85.333v-85.333h-85.333zM469.333 149.333h85.333v-85.333h-85.333zM128 149.333h85.333v-85.333h-85.333zM128 320h85.333v-85.333h-85.333zM128 661.333h85.333v-85.333h-85.333zM128 490.667h85.333v-85.333h-85.333zM128 832h85.333v-85.333h-85.333zM298.667 832h85.333v-85.333h-85.333zM810.667 320h85.333v-85.333h-85.333zM682.667 832h-213.333v-85.333h213.333c70.571 0 128-57.429 128-128v-213.333h85.333v213.333c0 117.632-95.701 213.333-213.333 213.333z" />
<glyph unicode="&#xe95b;" glyph-name="bx-border-right" d="M640 149.333h85.333v-85.333h-85.333zM469.333 149.333h85.333v-85.333h-85.333zM298.667 149.333h85.333v-85.333h-85.333zM128 149.333h85.333v-85.333h-85.333zM128 661.333h85.333v-85.333h-85.333zM128 320h85.333v-85.333h-85.333zM128 490.667h85.333v-85.333h-85.333zM128 832h85.333v-85.333h-85.333zM640 832h85.333v-85.333h-85.333zM469.333 832h85.333v-85.333h-85.333zM298.667 832h85.333v-85.333h-85.333zM469.333 661.333h85.333v-85.333h-85.333zM469.333 320h85.333v-85.333h-85.333zM298.667 490.667h85.333v-85.333h-85.333zM640 490.667h85.333v-85.333h-85.333zM469.333 490.667h85.333v-85.333h-85.333zM810.667 746.667v-682.667h85.333v768h-85.333z" />
<glyph unicode="&#xe95c;" glyph-name="bx-border-top" d="M810.667 490.667h85.333v-85.333h-85.333zM810.667 320h85.333v-85.333h-85.333zM810.667 661.333h85.333v-85.333h-85.333zM810.667 149.333h85.333v-85.333h-85.333zM469.333 149.333h85.333v-85.333h-85.333zM640 149.333h85.333v-85.333h-85.333zM298.667 149.333h85.333v-85.333h-85.333zM128 149.333h85.333v-85.333h-85.333zM128 490.667h85.333v-85.333h-85.333zM128 320h85.333v-85.333h-85.333zM128 661.333h85.333v-85.333h-85.333zM298.667 490.667h85.333v-85.333h-85.333zM640 490.667h85.333v-85.333h-85.333zM469.333 661.333h85.333v-85.333h-85.333zM469.333 320h85.333v-85.333h-85.333zM469.333 490.667h85.333v-85.333h-85.333zM896 832h-768v-85.333h768z" />
<glyph unicode="&#xe95d;" glyph-name="bx-bot" d="M935.595 464.768c-8.619 20.821-27.093 25.813-39.595 27.008v126.891c0 47.061-38.272 85.333-85.333 85.333h-256v59.307c13.013 11.691 21.333 28.501 21.333 47.36 0 35.328-28.672 64-64 64s-64-28.672-64-64c0-18.859 8.32-35.669 21.333-47.36v-59.307h-256c-47.061 0-85.333-38.272-85.333-85.333v-127.872c-2.091-0.128-3.499-0.256-3.499-0.256-22.315-1.579-39.595-20.181-39.595-42.539v-85.333c0-23.595 19.072-42.667 42.667-42.667h0.427v-213.333c0-47.061 38.272-85.333 85.333-85.333h597.333c47.061 0 85.333 38.272 85.333 85.333v213.333c23.595 0 42.667 19.072 42.667 42.667v82.688c0.469 6.528-0.512 13.184-3.072 19.413zM213.333 106.667v512h597.333l0.043-170.496c0-0.085-0.043-0.128-0.043-0.171v-85.333c0-0.085 0.043-0.128 0.043-0.213l0.043-255.787h-597.419zM426.667 448c0-47.128-28.654-85.333-64-85.333s-64 38.205-64 85.333c0 47.128 28.654 85.333 64 85.333s64-38.205 64-85.333zM725.333 448c0-47.128-28.654-85.333-64-85.333s-64 38.205-64 85.333c0 47.128 28.654 85.333 64 85.333s64-38.205 64-85.333zM341.333 277.333h341.333v-85.333h-341.333z" />
<glyph unicode="&#xe95e;" glyph-name="bx-bowling-ball" d="M512 874.667c-235.264 0-426.667-191.403-426.667-426.667s191.403-426.667 426.667-426.667 426.667 191.403 426.667 426.667-191.403 426.667-426.667 426.667zM512 106.667c-188.203 0-341.333 153.131-341.333 341.333s153.131 341.333 341.333 341.333 341.333-153.131 341.333-341.333-153.131-341.333-341.333-341.333zM384 512c0-35.346-28.654-64-64-64s-64 28.654-64 64c0 35.346 28.654 64 64 64s64-28.654 64-64zM512 640c0-35.346-28.654-64-64-64s-64 28.654-64 64c0 35.346 28.654 64 64 64s64-28.654 64-64zM554.667 469.333c0-35.346-28.654-64-64-64s-64 28.654-64 64c0 35.346 28.654 64 64 64s64-28.654 64-64z" />
<glyph unicode="&#xe95f;" glyph-name="bx-box" d="M853.333 832h-682.667c-47.061 0-85.333-38.272-85.333-85.333v-85.333c0-31.403 17.28-58.667 42.667-73.472v-438.528c0-47.061 38.272-85.333 85.333-85.333h597.333c47.061 0 85.333 38.272 85.333 85.333v438.528c25.387 14.805 42.667 42.069 42.667 73.472v85.333c0 47.061-38.272 85.333-85.333 85.333zM170.667 746.667h682.667l0.085-85.333h-682.752v85.333zM213.333 149.333v426.667h597.333l0.085-426.667h-597.419zM341.333 490.667h341.333v-85.333h-341.333z" />
<glyph unicode="&#xe960;" glyph-name="bx-bracket" d="M426.667 789.333v85.333h-256v-853.333h256v85.333h-170.667v682.667zM597.333 106.667v-85.333h256v853.333h-256v-85.333h170.667v-682.667z" />
<glyph unicode="&#xe961;" glyph-name="bx-braille" d="M256 661.333c0-47.128-38.205-85.333-85.333-85.333s-85.333 38.205-85.333 85.333c0 47.128 38.205 85.333 85.333 85.333s85.333-38.205 85.333-85.333zM469.333 448c0-47.128-38.205-85.333-85.333-85.333s-85.333 38.205-85.333 85.333c0 47.128 38.205 85.333 85.333 85.333s85.333-38.205 85.333-85.333zM725.333 661.333c0-47.128-38.205-85.333-85.333-85.333s-85.333 38.205-85.333 85.333c0 47.128 38.205 85.333 85.333 85.333s85.333-38.205 85.333-85.333zM725.333 448c0-47.128-38.205-85.333-85.333-85.333s-85.333 38.205-85.333 85.333c0 47.128 38.205 85.333 85.333 85.333s85.333-38.205 85.333-85.333zM725.333 234.667c0-47.128-38.205-85.333-85.333-85.333s-85.333 38.205-85.333 85.333c0 47.128 38.205 85.333 85.333 85.333s85.333-38.205 85.333-85.333zM938.667 661.333c0-47.128-38.205-85.333-85.333-85.333s-85.333 38.205-85.333 85.333c0 47.128 38.205 85.333 85.333 85.333s85.333-38.205 85.333-85.333zM256 234.667c0-47.128-38.205-85.333-85.333-85.333s-85.333 38.205-85.333 85.333c0 47.128 38.205 85.333 85.333 85.333s85.333-38.205 85.333-85.333z" />
<glyph unicode="&#xe962;" glyph-name="bx-brain" d="M847.531 598.827c3.797 13.355 5.803 27.221 5.803 41.173 0 77.525-59.392 141.44-135.083 148.651-17.408 50.005-65.024 86.016-120.917 86.016-32.896 0-62.635-12.843-85.333-33.28-22.699 20.437-52.437 33.28-85.333 33.28-55.509 0-102.827-35.456-120.533-85.973-75.904-7.040-135.467-71.040-135.467-148.693 0-13.952 2.005-27.819 5.803-41.173-54.4-28.928-91.136-86.613-91.136-150.827 0-45.867 18.261-89.003 50.005-120.832-4.821-16.043-7.339-32.896-7.339-49.835 0-83.499 60.245-153.173 141.056-167.851 23.637-52.523 76.715-88.149 136.277-88.149 41.771 0 79.531 17.365 106.667 45.184 27.136-27.819 64.896-45.184 106.667-45.184 59.477 0 112.427 35.456 136.107 87.893 80.128 13.995 141.227 84.053 141.227 168.107 0 16.939-2.517 33.792-7.339 49.835 31.744 31.829 50.005 74.965 50.005 120.832 0 64.213-36.736 121.899-91.136 150.827zM405.333 106.667c-30.336 0-56.747 21.504-62.72 51.115l-9.045 34.219h-34.901c-47.061 0-85.333 38.272-85.333 85.333 0 15.019 3.627 29.099 10.795 41.856l19.456 34.816-33.451 21.76c-24.704 16.128-39.467 43.093-39.467 72.235 0 41.685 30.848 77.824 71.765 84.139l72.235 11.093-45.184 57.429c-8.704 11.093-13.483 25.045-13.483 39.339 0 35.285 28.715 64 64 64 4.523 0 9.131-0.597 13.397-1.365l50.603-7.467v51.499c0 23.552 19.115 42.667 42.667 42.667s42.667-19.115 42.667-42.667v-576c0-35.285-28.715-64-64-64zM813.867 375.808l-33.451-21.76 19.456-34.816c7.168-12.8 10.795-26.88 10.795-41.899 0-47.061-38.272-85.333-87.467-85.333h-34.901l-6.912-34.219c-5.973-29.611-32.384-51.115-62.72-51.115-35.285 0-64 28.715-64 64v576c0 23.552 19.115 42.667 42.667 42.667s42.667-19.115 42.667-44.8v-51.499l50.603 9.6c4.267 0.768 8.875 1.365 13.397 1.365 35.285 0 64-28.715 64-64 0-14.293-4.779-28.245-13.483-39.339l-45.184-57.472 72.235-11.093c40.917-6.272 71.765-42.411 71.765-84.096 0-29.141-14.763-56.107-39.467-72.192z" />
<glyph unicode="&#xe963;" glyph-name="bx-briefcase" d="M853.333 704h-128v85.333c0 47.061-38.272 85.333-85.333 85.333h-256c-47.061 0-85.333-38.272-85.333-85.333v-85.333h-128c-47.061 0-85.333-38.272-85.333-85.333v-469.333c0-47.061 38.272-85.333 85.333-85.333h682.667c47.061 0 85.333 38.272 85.333 85.333v469.333c0 47.061-38.272 85.333-85.333 85.333zM640 789.333v-85.333h-256v85.333h256zM341.333 618.667h512v-128h-682.667v128h170.667zM170.667 149.333v256h256v-85.333h170.667v85.333h256l0.043-256h-682.709z" />
<glyph unicode="&#xe964;" glyph-name="bx-briefcase-alt" d="M853.333 704h-128v85.333c0 47.061-38.272 85.333-85.333 85.333h-256c-47.061 0-85.333-38.272-85.333-85.333v-85.333h-128c-47.061 0-85.333-38.272-85.333-85.333v-469.333c0-47.061 38.272-85.333 85.333-85.333h682.667c47.061 0 85.333 38.272 85.333 85.333v469.333c0 47.061-38.272 85.333-85.333 85.333zM682.667 618.667v-469.333h-341.333v469.333h341.333zM640 789.333v-85.333h-256v85.333h256zM170.667 618.667h85.333v-469.333h-85.333v469.333zM768 149.333v469.333h85.333l0.043-469.333h-85.376z" />
<glyph unicode="&#xe965;" glyph-name="bx-briefcase-alt-2" d="M853.333 704h-128v85.333c0 47.061-38.272 85.333-85.333 85.333h-256c-47.061 0-85.333-38.272-85.333-85.333v-85.333h-128c-47.061 0-85.333-38.272-85.333-85.333v-469.333c0-47.061 38.272-85.333 85.333-85.333h682.667c47.061 0 85.333 38.272 85.333 85.333v469.333c0 47.061-38.272 85.333-85.333 85.333zM640 789.333v-85.333h-256v85.333h256zM170.667 618.667h682.667v-170.667h-128v85.333h-85.333v-85.333h-256v85.333h-85.333v-85.333h-128v170.667zM170.667 149.333v213.333h128v-85.333h85.333v85.333h256v-85.333h85.333v85.333h128.043v-213.333h-682.709z" />
<glyph unicode="&#xe966;" glyph-name="bx-brightness" d="M840.832 563.499l-30.165 30.165v110.336c0 23.595-19.072 42.667-42.667 42.667h-110.336l-115.499 115.499c-16.683 16.683-43.648 16.683-60.331 0l-115.499-115.499h-110.336c-23.552 0-42.667-19.072-42.667-42.667v-110.336l-115.499-115.499c-16.683-16.683-16.683-43.648 0-60.331l115.499-115.499v-110.336c0-23.595 19.115-42.667 42.667-42.667h110.336l115.499-115.499c8.32-8.32 19.243-12.501 30.165-12.501s21.845 4.181 30.165 12.501l115.499 115.499h110.336c23.595 0 42.667 19.072 42.667 42.667v110.336l115.499 115.499c16.683 16.683 16.683 43.648 0 60.331l-85.333 85.333zM737.835 350.165l-12.501-12.501v-102.997h-102.997l-110.336-110.336-110.336 110.336h-102.997v102.997l-110.336 110.336 110.336 110.336v102.997h102.997l110.336 110.336 110.336-110.336h102.997v-102.997l110.336-110.336-97.835-97.835zM512 618.667c-94.123 0-170.667-76.544-170.667-170.667s76.544-170.667 170.667-170.667c94.123 0 170.667 76.544 170.667 170.667s-76.544 170.667-170.667 170.667z" />
<glyph unicode="&#xe967;" glyph-name="bx-brightness-half" d="M926.165 478.165l-115.499 115.499v110.336c0 23.595-19.072 42.667-42.667 42.667h-110.336l-115.499 115.499c-16.683 16.683-43.648 16.683-60.331 0l-115.499-115.499h-110.336c-23.595 0-42.667-19.072-42.667-42.667v-110.336l-115.499-115.499c-16.683-16.683-16.683-43.648 0-60.331l115.499-115.499v-110.336c0-23.595 19.072-42.667 42.667-42.667h110.336l115.499-115.499c8.32-8.32 19.243-12.501 30.165-12.501s21.845 4.181 30.165 12.501l115.499 115.499h110.336c23.595 0 42.667 19.072 42.667 42.667v110.336l115.499 115.499c16.683 16.683 16.683 43.648 0 60.331zM737.835 350.165l-12.501-12.501v-102.997h-102.997l-110.336-110.336-110.336 110.336h-102.997v102.997l-110.336 110.336 110.336 110.336v102.997h102.997l110.336 110.336 110.336-110.336h102.997v-102.997l110.336-110.336-97.835-97.835zM512 618.667v-341.333c94.123 0 170.667 76.544 170.667 170.667s-76.544 170.667-170.667 170.667z" />
<glyph unicode="&#xe968;" glyph-name="bx-broadcast" d="M840.832 776.832l-60.331-60.331c116.608-116.608 116.608-313.728 0-430.336l60.331-60.331c149.333 149.333 149.333 401.664 0 550.997zM652.501 588.501c24.149-24.149 37.504-55.125 37.504-87.168s-13.355-63.019-37.504-87.168l60.331-60.331c40.277 40.235 62.507 92.672 62.507 147.499s-22.229 107.264-62.507 147.499l-60.331-60.331zM264.832 716.501l-60.331 60.331c-149.333-149.333-149.333-401.664 0-550.997l60.331 60.331c-116.608 116.608-116.608 313.728 0 430.336zM311.168 648.832c-40.277-40.235-62.507-92.672-62.507-147.499s22.229-107.264 62.507-147.499l60.331 60.331c-24.149 24.149-37.504 55.125-37.504 87.168s13.355 63.019 37.504 87.168l-60.331 60.331zM597.333 512c0 47.104-38.229 85.333-85.333 85.333s-85.333-38.229-85.333-85.333c-0.043-29.653 15.147-55.808 38.187-71.083l-38.101-419.584h170.496l-38.101 419.627c23.040 15.275 38.187 41.387 38.187 71.040z" />
<glyph unicode="&#xe969;" glyph-name="bx-brush" d="M584.832 862.165c-16.683 16.683-43.648 16.683-60.331 0l-249.173-249.173c-0.64 0.043-1.237 0.384-1.877 0.384-11.307 0-22.187-4.48-30.165-12.501l-60.331-60.331c-24.149-24.192-37.461-56.363-37.461-90.539 0-34.219 13.355-66.389 37.504-90.496l30.165-30.165-90.539-90.539c-24.533-24.491-37.76-56.789-37.291-89.984-0.469-37.845 16.085-73.771 45.355-98.475 22.144-18.731 50.688-29.013 80.427-29.013 35.584 0 70.571 14.549 96 39.979l87.040 86.997 30.165-30.123c48.384-48.341 132.651-48.384 180.992-0.043l60.373 60.331c8.021 8.021 12.501 18.816 12.501 30.165 0 1.109-0.555 2.133-0.64 3.243l248.619 248.619c16.683 16.683 16.683 43.648 0 60.331l-341.333 341.333zM544.939 178.475c-16.085-16.085-44.203-16.128-60.331 0.043l-60.331 60.288c-16.683 16.683-43.648 16.683-60.331 0l-117.163-117.12c-9.515-9.557-22.528-15.019-35.669-15.019-6.784 0-16.683 1.536-25.344 8.875-9.899 8.32-15.232 19.84-15.104 33.365-0.128 11.008 4.224 21.504 12.245 29.525l120.704 120.704c16.683 16.683 16.683 43.648 0 60.331l-60.373 60.373c-8.021 8.021-12.459 18.688-12.459 30.123s4.437 22.144 12.501 30.208l30.165 30.165 301.696-301.739-30.208-30.123zM625.536 280.533l-281.003 281.003 210.133 210.133 281.003-281.003-210.133-210.133z" />
<glyph unicode="&#xe96a;" glyph-name="bx-brush-alt" d="M810.667 618.624l-170.667 0.043v128.043c0 34.645-13.483 66.816-37.291 89.941-26.581 27.179-63.189 40.96-101.973 37.504-65.451-5.632-116.736-63.829-116.736-132.48v-123.008h-170.667c-47.061 0-85.333-38.272-85.333-85.333v-426.667c0-47.061 38.272-85.333 85.333-85.333h597.333c47.061 0 85.333 38.272 85.333 85.333v426.624c0 47.061-38.272 85.333-85.333 85.333zM213.333 533.333h256v208.341c0 24.32 17.365 45.653 42.752 47.659 11.349 0 21.845-4.395 30.379-13.099 7.851-7.637 12.203-18.133 12.203-29.525v-213.376h42.453c0.085 0 0.128-0.043 0.213-0.043h213.333v-85.291h-597.333v85.333zM213.333 106.667v256h597.333l0.085-256h-597.419z" />
<glyph unicode="&#xe96b;" glyph-name="bx-bug" d="M720.853 681.856l120.021 119.979-60.331 60.331-121.429-121.429c-9.941 7.083-20.181 13.696-30.848 19.371-73.515 38.827-158.976 38.869-232.533 0-10.667-5.632-20.821-12.245-30.805-19.328l-121.429 121.387-60.331-60.331 120.021-119.979c-24.576-30.848-43.776-66.56-57.6-105.856h-160.256v-85.333h98.432c-2.773-21.12-4.565-42.539-4.565-64 0-21.632 1.792-43.221 4.565-64.469h-98.432v-85.333h117.461c0.555-1.664 0.896-3.413 1.451-5.035 8.021-23.68 17.963-46.635 29.653-68.267 1.877-3.456 4.053-6.613 6.016-9.984l-99.413-99.413 60.331-60.331 90.027 90.069c10.027-10.837 20.395-21.248 31.403-30.549 17.835-15.104 36.992-28.032 56.832-38.528 20.437-10.795 41.899-19.157 63.829-24.747 22.613-5.803 45.824-8.747 69.077-8.747s46.464 2.944 69.035 8.704c21.931 5.589 43.392 13.952 63.829 24.747 19.84 10.496 38.997 23.467 56.875 38.571 11.008 9.301 21.333 19.712 31.317 30.549l90.069-90.069 60.331 60.331-99.413 99.413c2.005 3.413 4.181 6.613 6.059 10.069 11.648 21.547 21.632 44.501 29.611 68.224 0.555 1.664 0.896 3.371 1.451 5.035h117.504v85.333h-98.475c2.773 21.291 4.565 42.837 4.565 64.469 0 21.461-1.792 42.88-4.523 64h98.432v85.291h-160.256c-13.824 39.296-33.024 75.008-57.557 105.856zM370.389 629.419c18.987 23.808 40.96 42.368 65.195 55.211 48.683 25.728 104.192 25.685 152.789 0 24.277-12.843 46.251-31.403 65.28-55.253 12.757-15.915 23.040-34.133 32.128-53.376h-347.563c9.131 19.243 19.371 37.504 32.171 53.419zM759.467 426.667c0-22.272-1.792-44.544-5.376-66.261-3.371-20.907-8.491-41.515-15.147-61.269-6.443-19.157-14.507-37.632-23.851-54.955-9.259-17.024-19.755-32.939-31.275-47.36-11.392-14.208-23.893-27.136-37.077-38.315-13.227-11.136-27.264-20.651-41.771-28.331s-29.653-13.525-45.099-17.493c-1.707-0.427-3.499-0.597-5.205-0.981v250.965h-85.333v-250.923c-1.707 0.384-3.499 0.555-5.205 0.981-15.403 3.968-30.592 9.813-45.099 17.493s-28.544 17.195-41.728 28.331c-13.269 11.221-25.771 24.107-37.163 38.357-11.52 14.379-22.016 30.293-31.189 47.275-9.387 17.365-17.408 35.84-23.893 54.997-6.656 19.755-11.776 40.363-15.189 61.355-3.541 21.589-5.333 43.861-5.333 66.133 0 21.547 1.749 43.051 5.077 64h484.736c3.371-20.949 5.12-42.453 5.12-64z" />
<glyph unicode="&#xe96c;" glyph-name="bx-bug-alt" d="M384 576h256v-85.333h-256zM384 405.333h256v-85.333h-256zM768 729.003l72.832 72.832-60.331 60.331-66.688-66.645c-53.205 48.939-123.989 79.147-201.813 79.147s-148.608-30.208-201.813-79.147l-66.688 66.645-60.331-60.331 72.832-72.832c-26.923-44.8-42.667-97.024-42.667-153.003h-85.333v-85.333h85.333v-85.333h-85.333v-85.333h85.333c0-164.693 134.016-298.667 298.667-298.667s298.667 133.973 298.667 298.667h85.333v85.333h-85.333v85.333h85.333v85.333h-85.333c0 55.979-15.744 108.203-42.667 153.003zM725.333 405.333v-85.333c0-117.632-95.701-213.333-213.333-213.333s-213.333 95.701-213.333 213.333v256c0 117.632 95.701 213.333 213.333 213.333s213.333-95.701 213.333-213.333v-170.667z" />
<glyph unicode="&#xe96d;" glyph-name="bx-building" d="M768 874.667h-512c-47.061 0-85.333-38.272-85.333-85.333v-725.333c0-23.552 19.072-42.667 42.667-42.667h597.333c23.595 0 42.667 19.115 42.667 42.667v725.333c0 47.061-38.272 85.333-85.333 85.333zM768 106.667h-512v682.667h512v-682.667zM341.333 704h128v-85.333h-128zM554.667 704h128v-85.333h-128zM341.333 533.333h128v-85.333h-128zM554.667 532.011h128v-84.011h-128zM341.333 362.667h128v-85.333h-128zM554.667 362.667h128v-85.333h-128z" />
<glyph unicode="&#xe96e;" glyph-name="bx-building-house" d="M810.667 874.667h-426.667c-47.061 0-85.333-38.272-85.333-85.333v-238.336l-200.832-200.832c-12.203-12.203-15.872-30.549-9.259-46.507s22.187-26.325 39.424-26.325v-213.333c0-23.595 19.115-42.667 42.667-42.667h682.667c23.595 0 42.667 19.072 42.667 42.667v725.333c0 47.061-38.272 85.333-85.333 85.333zM469.333 106.667h-256v238.336l128 128 128-128v-238.336zM810.667 106.667h-256v170.667c17.237 0 32.853 10.368 39.424 26.325 6.613 15.957 2.944 34.304-9.259 46.507l-200.832 200.832v238.336h426.667v-682.667zM469.333 704h85.333v-85.333h-85.333zM640 704h85.333v-85.333h-85.333zM640 532.011h85.333v-84.011h-85.333zM640 362.667h85.333v-85.333h-85.333zM298.667 320h85.333v-85.333h-85.333z" />
<glyph unicode="&#xe96f;" glyph-name="bx-buildings" d="M810.667 874.667h-426.667c-47.061 0-85.333-38.272-85.333-85.333v-256h-85.333c-47.061 0-85.333-38.272-85.333-85.333v-384c0-23.552 19.072-42.667 42.667-42.667h682.667c23.595 0 42.667 19.115 42.667 42.667v725.333c0 47.061-38.272 85.333-85.333 85.333zM213.333 448h256v-341.333h-256v341.333zM810.667 106.667h-256v341.333c0 47.061-38.272 85.333-85.333 85.333h-85.333v256h426.667v-682.667zM469.333 704h85.333v-85.333h-85.333zM640 704h85.333v-85.333h-85.333zM640 532.011h85.333v-84.011h-85.333zM640 362.667h85.333v-85.333h-85.333zM298.667 362.624h85.333v-85.333h-85.333z" />
<glyph unicode="&#xe970;" glyph-name="bx-bulb" d="M384 106.667h256v-85.333h-256zM721.323 374.955c43.947 51.456 89.344 104.661 89.344 201.045 0 164.651-134.016 298.667-298.667 298.667s-298.667-134.016-298.667-298.667c0-97.493 45.525-150.528 89.643-201.813 15.275-17.835 31.104-36.309 46.251-57.557 6.144-8.789 16.213-42.496 25.216-81.963h-33.109v-85.333h341.333v85.333h-33.024c9.088 39.552 19.2 73.344 25.301 82.133 15.019 21.461 30.976 40.107 46.379 58.155zM605.099 365.867c-18.517-26.325-33.963-88.533-42.923-131.2h-100.309c-8.917 42.752-24.405 105.088-43.136 131.413-17.365 24.405-35.243 45.269-51.029 63.659-41.557 48.384-69.035 80.384-69.035 146.261 0 117.632 95.701 213.333 213.333 213.333s213.333-95.701 213.333-213.333c0-64.896-27.435-97.024-68.907-145.621-15.915-18.688-33.963-39.808-51.328-64.512z" />
<glyph unicode="&#xe971;" glyph-name="bx-bullseye" d="M512 704c-141.184 0-256-114.816-256-256s114.816-256 256-256 256 114.816 256 256-114.816 256-256 256zM512 277.333c-94.123 0-170.667 76.544-170.667 170.667s76.544 170.667 170.667 170.667 170.667-76.544 170.667-170.667-76.544-170.667-170.667-170.667zM512 874.667c-231.296 0-426.667-195.371-426.667-426.667s195.371-426.667 426.667-426.667 426.667 195.371 426.667 426.667-195.371 426.667-426.667 426.667zM512 106.667c-185.045 0-341.333 156.288-341.333 341.333s156.288 341.333 341.333 341.333 341.333-156.288 341.333-341.333-156.288-341.333-341.333-341.333zM512 533.333c-46.123 0-85.333-39.211-85.333-85.333s39.211-85.333 85.333-85.333 85.333 39.211 85.333 85.333-39.211 85.333-85.333 85.333z" />
<glyph unicode="&#xe972;" glyph-name="bx-buoy" d="M512 874.667c-235.264 0-426.667-191.403-426.667-426.667s191.403-426.667 426.667-426.667 426.667 191.403 426.667 426.667-191.403 426.667-426.667 426.667zM828.203 576h-145.536v-1.323c-12.459 16.725-27.264 31.531-43.989 43.989h1.323v145.536c85.376-34.688 153.515-102.869 188.203-188.203zM512 320c-70.571 0-128 57.429-128 128s57.429 128 128 128 128-57.429 128-128-57.429-128-128-128zM554.667 786.389v-129.365c-13.781 2.816-28.032 4.309-42.667 4.309s-28.885-1.493-42.667-4.309v129.365c13.995 1.749 28.16 2.944 42.667 2.944s28.672-1.195 42.667-2.944zM384 764.203v-145.536h1.323c-16.725-12.459-31.531-27.264-43.989-43.989v1.323h-145.536c34.688 85.333 102.827 153.515 188.203 188.203zM173.611 490.667h129.365c-2.816-13.781-4.309-28.075-4.309-42.667s1.493-28.885 4.352-42.667h-129.408c-1.749 13.995-2.944 28.203-2.944 42.667s1.195 28.672 2.944 42.667zM195.797 320h145.536v1.323c12.117-16.256 26.496-30.635 42.667-42.88v-146.645c-85.376 34.688-153.515 102.869-188.203 188.203zM469.333 109.611v129.365c13.781-2.816 28.032-4.309 42.667-4.309s28.885 1.493 42.667 4.309v-129.365c-13.995-1.749-28.16-2.944-42.667-2.944s-28.672 1.195-42.667 2.944zM640 131.797v146.645c16.171 12.245 30.549 26.624 42.667 42.88v-1.323h145.536c-34.688-85.333-102.827-153.515-188.203-188.203zM850.389 405.333h-129.365c2.816 13.781 4.309 28.075 4.309 42.667s-1.493 28.885-4.352 42.667h129.365c1.792-13.995 2.987-28.203 2.987-42.667s-1.195-28.672-2.944-42.667z" />
<glyph unicode="&#xe973;" glyph-name="bx-bus" d="M896.171 619.733v84.267c0 94.123-76.544 170.667-170.667 170.667h-426.667c-94.123 0-170.667-76.544-170.667-170.667v-85.248c-1.835-0.085-3.243-0.171-3.243-0.171-22.357-1.621-39.595-20.181-39.595-42.581v-85.333c0-23.552 19.072-42.667 42.667-42.667h0.171v-256c0-31.36 17.195-58.539 42.496-73.387v-54.613c0-23.595 19.072-42.667 42.667-42.667h42.667c23.595 0 42.667 19.072 42.667 42.667v42.667h426.667v-42.667c0-23.595 19.072-42.667 42.667-42.667h42.667c23.595 0 42.667 19.072 42.667 42.667v54.443c25.472 14.805 42.837 42.027 42.837 73.557v256c23.595 0 42.667 19.115 42.667 42.667v82.688c0.469 6.528-0.512 13.184-3.072 19.413-8.661 20.779-27.093 25.771-39.595 26.965zM810.923 192h-597.419v213.333h597.376l0.043-213.333zM469.504 661.333v-170.667h-256v170.667h256zM810.837 661.333v-85.248c0-0.043 0-0.043 0-0.085v-85.333h-256v170.667h256zM298.837 789.333h426.667c31.403 0 58.667-17.28 73.472-42.667h-573.611c14.805 25.387 42.069 42.667 73.472 42.667zM384 298.667c0-35.346-28.654-64-64-64s-64 28.654-64 64c0 35.346 28.654 64 64 64s64-28.654 64-64zM768 298.667c0-35.346-28.654-64-64-64s-64 28.654-64 64c0 35.346 28.654 64 64 64s64-28.654 64-64z" />
<glyph unicode="&#xe974;" glyph-name="bx-bus-school" d="M907.051 450.219c18.091 4.949 31.616 20.821 31.616 40.448v128c0 23.509-18.987 42.539-42.496 42.624v42.709h-0.171c0 94.123-76.544 170.667-170.667 170.667h-426.667c-94.123 0-170.667-76.544-170.667-170.667v-42.667c-23.595 0-42.667-19.115-42.667-42.667v-128c0-19.669 13.525-35.499 31.659-40.448-20.224-28.587-31.659-62.293-31.616-98.048l0.171-160.299c0.043-31.275 17.237-58.411 42.453-73.216v-54.656c0-23.552 19.072-42.667 42.667-42.667h42.667c23.595 0 42.667 19.115 42.667 42.667v42.667h512v-42.667c0-23.552 19.072-42.667 42.667-42.667h42.667c23.595 0 42.667 19.115 42.667 42.667v54.357c6.4 3.712 12.587 7.979 17.963 13.355 16.085 16.128 24.96 37.589 24.917 60.373l-0.171 160.384c-0.043 35.669-11.563 69.291-31.659 97.749zM213.333 192h-42.453l-0.171 160.299c-0.043 19.584 6.869 37.973 18.901 53.035h644.736c12.075-15.061 18.987-33.408 19.029-52.992l0.213-160.341h-640.256zM469.504 618.667v-128h-256.171v128h256.171zM810.667 490.667h-255.829v128h255.829v-128zM298.667 789.333h426.667c47.061 0 85.333-38.272 85.333-85.333h-170.667v42.667h-256v-42.667h-170.667c0 47.061 38.272 85.333 85.333 85.333zM341.333 298.667c0-35.346-28.654-64-64-64s-64 28.654-64 64c0 35.346 28.654 64 64 64s64-28.654 64-64zM810.667 298.667c0-35.346-28.654-64-64-64s-64 28.654-64 64c0 35.346 28.654 64 64 64s64-28.654 64-64z" />
<glyph unicode="&#xe975;" glyph-name="bx-cabinet" d="M896 789.333c0 47.061-38.272 85.333-85.333 85.333h-597.333c-47.061 0-85.333-38.272-85.333-85.333v-682.667c0-47.061 38.272-85.333 85.333-85.333h597.333c47.061 0 85.333 38.272 85.333 85.333v682.667zM213.333 789.333h597.333v-298.667h-597.333v298.667zM213.333 106.667v298.667h597.376v-298.667h-597.376zM597.333 661.333h-170.667v42.667h-85.333v-128h341.333v128h-85.333zM597.333 320v-42.667h-170.667v42.667h-85.333v-128h341.333v128z" />
<glyph unicode="&#xe976;" glyph-name="bx-cake" d="M810.667 746.667h-256v128h-85.333v-128h-256c-70.571 0-128-57.429-128-128v-426.667c0-47.061 38.272-85.333 85.333-85.333h682.667c47.061 0 85.333 38.272 85.333 85.333v426.667c0 70.571-57.429 128-128 128zM213.333 661.333h597.333c23.552 0 42.667-19.115 42.667-42.667l0.043-133.12c-38.229-9.728-62.677-31.317-81.749-48.299-21.632-19.2-35.925-31.915-67.755-31.915-31.787 0-46.080 12.715-67.712 31.872-25.387 22.571-60.117 53.461-124.373 53.461-64.213 0-98.944-30.891-124.331-53.461-21.632-19.2-35.883-31.872-67.669-31.872-31.701 0-45.952 12.672-67.499 31.872-19.072 16.981-43.435 38.613-81.621 48.341v133.12c0 23.552 19.115 42.667 42.667 42.667zM170.667 192v201.131c8.149-5.248 15.957-11.691 24.875-19.669 25.387-22.571 60.075-53.461 124.245-53.461 64.213 0 98.944 30.891 124.331 53.461 21.632 19.2 35.883 31.872 67.669 31.872s46.080-12.715 67.712-31.872c25.387-22.571 60.117-53.461 124.373-53.461s99.029 30.891 124.416 53.461c9.003 8.021 16.853 14.507 25.088 19.797l0.043-201.259h-682.752z" />
<glyph unicode="&#xe977;" glyph-name="bx-calculator" d="M810.667 874.667h-597.333c-47.061 0-85.333-38.272-85.333-85.333v-682.667c0-47.061 38.272-85.333 85.333-85.333h597.333c47.061 0 85.333 38.272 85.333 85.333v682.667c0 47.061-38.272 85.333-85.333 85.333zM213.333 106.667v682.667h597.333l0.043-682.667h-597.376zM298.667 448h85.333v-85.333h-85.333zM298.667 277.333h85.333v-85.333h-85.333zM469.333 448h85.333v-85.333h-85.333zM298.667 704h426.667v-170.667h-426.667zM469.333 277.333h85.333v-85.333h-85.333zM640 448h85.333v-256h-85.333z" />
<glyph unicode="&#xe978;" glyph-name="bx-calendar" d="M298.667 490.667h85.333v-85.333h-85.333zM298.667 320h85.333v-85.333h-85.333zM469.333 490.667h85.333v-85.333h-85.333zM469.333 320h85.333v-85.333h-85.333zM640 490.667h85.333v-85.333h-85.333zM640 320h85.333v-85.333h-85.333zM213.333 21.333h597.333c47.061 0 85.333 38.272 85.333 85.333v597.333c0 47.061-38.272 85.333-85.333 85.333h-85.333v85.333h-85.333v-85.333h-256v85.333h-85.333v-85.333h-85.333c-47.061 0-85.333-38.272-85.333-85.333v-597.333c0-47.061 38.272-85.333 85.333-85.333zM810.667 618.667l0.043-512h-597.376v512h597.333z" />
<glyph unicode="&#xe979;" glyph-name="bx-calendar-alt" d="M127.957 704v-597.333c0-47.061 38.272-85.333 85.333-85.333h597.333c47.061 0 85.333 38.272 85.333 85.333v597.333c0 47.061-38.272 85.333-85.333 85.333h-85.333v85.333h-85.333v-85.333h-256v85.333h-85.333v-85.333h-85.333c-47.061 0-85.333-38.272-85.333-85.333zM810.709 106.667h-597.419v512h597.333l0.085-512z" />
<glyph unicode="&#xe97a;" glyph-name="bx-calendar-check" d="M810.667 789.333h-85.333v85.333h-85.333v-85.333h-256v85.333h-85.333v-85.333h-85.333c-47.061 0-85.333-38.272-85.333-85.333v-597.333c0-47.061 38.272-85.333 85.333-85.333h597.333c47.061 0 85.333 38.272 85.333 85.333v597.333c0 47.061-38.272 85.333-85.333 85.333zM810.752 106.667h-597.419v512h597.333l0.085-512zM469.333 217.003l243.499 243.499-60.331 60.331-183.168-183.168-97.835 97.835-60.331-60.331z" />
<glyph unicode="&#xe97b;" glyph-name="bx-calendar-edit" d="M810.667 789.333h-128v85.333h-85.333v-85.333h-170.667v85.333h-85.333v-85.333h-128c-47.061 0-85.333-38.272-85.333-85.333v-597.333c0-47.061 38.272-85.333 85.333-85.333h597.333c47.061 0 85.333 38.272 85.333 85.333v597.333c0 47.061-38.272 85.333-85.333 85.333zM213.333 106.667v554.667h597.333v42.667l0.085-597.333h-597.419zM666.794 440.18l-76.804 76.761 58.483 58.516 76.804-76.761zM341.547 268.757v-76.757h76.757l212.309 212.053-76.757 76.757z" />
<glyph unicode="&#xe97c;" glyph-name="bx-calendar-event" d="M469.333 448h256v-256h-256zM810.667 789.333h-85.333v85.333h-85.333v-85.333h-256v85.333h-85.333v-85.333h-85.333c-47.061 0-85.333-38.272-85.333-85.333v-597.333c0-47.061 38.272-85.333 85.333-85.333h597.333c47.061 0 85.333 38.272 85.333 85.333v597.333c0 47.061-38.272 85.333-85.333 85.333zM810.709 106.667h-597.376v512h597.333l0.043-512z" />
<glyph unicode="&#xe97d;" glyph-name="bx-calendar-exclamation" d="M810.667 789.333h-85.333v85.333h-85.333v-85.333h-256v85.333h-85.333v-85.333h-85.333c-47.061 0-85.333-38.272-85.333-85.333v-597.333c0-47.061 38.272-85.333 85.333-85.333h597.333c47.061 0 85.333 38.272 85.333 85.333v597.333c0 47.061-38.272 85.333-85.333 85.333zM810.752 106.667h-597.419v512h597.333l0.085-512zM469.333 533.333h85.333v-213.333h-85.333zM469.333 277.333h85.333v-85.333h-85.333z" />
<glyph unicode="&#xe97e;" glyph-name="bx-calendar-heart" d="M368.981 332.331l142.891-140.331 142.933 140.331c37.163 36.437 37.163 94.293 0 130.944-37.333 36.48-96.213 36.48-133.376 0l-9.557-9.344-9.557 9.344c-37.12 36.48-96 36.48-133.333 0-37.163-36.651-37.163-94.464 0-130.944zM810.667 789.333h-85.333v85.333h-85.333v-85.333h-256v85.333h-85.333v-85.333h-85.333c-47.061 0-85.333-38.272-85.333-85.333v-597.333c0-47.061 38.272-85.333 85.333-85.333h597.333c47.061 0 85.333 38.272 85.333 85.333v597.333c0 47.061-38.272 85.333-85.333 85.333zM810.752 106.667h-597.419v512h597.333l0.085-512z" />
<glyph unicode="&#xe97f;" glyph-name="bx-calendar-minus" d="M341.333 405.333h341.333v-85.333h-341.333zM810.667 789.333h-85.333v85.333h-85.333v-85.333h-256v85.333h-85.333v-85.333h-85.333c-47.061 0-85.333-38.272-85.333-85.333v-597.333c0-47.061 38.272-85.333 85.333-85.333h597.333c47.061 0 85.333 38.272 85.333 85.333v597.333c0 47.061-38.272 85.333-85.333 85.333zM810.752 106.667h-597.419v512h597.333l0.085-512z" />
<glyph unicode="&#xe980;" glyph-name="bx-calendar-plus" d="M341.333 320h128v-128h85.333v128h128v85.333h-128v128h-85.333v-128h-128zM810.667 789.333h-85.333v85.333h-85.333v-85.333h-256v85.333h-85.333v-85.333h-85.333c-47.061 0-85.333-38.272-85.333-85.333v-597.333c0-47.061 38.272-85.333 85.333-85.333h597.333c47.061 0 85.333 38.272 85.333 85.333v597.333c0 47.061-38.272 85.333-85.333 85.333zM810.752 106.667h-597.419v512h597.333l0.085-512z" />
<glyph unicode="&#xe981;" glyph-name="bx-calendar-star" d="M425.856 328.064l-19.925-116.309 104.491 54.912 104.491-54.912-19.968 116.309 84.565 82.432-116.821 16.981-52.267 105.856-52.267-105.856-116.821-16.981zM810.667 789.333h-85.333v85.333h-85.333v-85.333h-256v85.333h-85.333v-85.333h-85.333c-47.061 0-85.333-38.272-85.333-85.333v-597.333c0-47.061 38.272-85.333 85.333-85.333h597.333c47.061 0 85.333 38.272 85.333 85.333v597.333c0 47.061-38.272 85.333-85.333 85.333zM810.752 106.667h-597.419v512h597.333l0.085-512z" />
<glyph unicode="&#xe982;" glyph-name="bx-calendar-week" d="M810.667 789.333h-128v85.333h-85.333v-85.333h-170.667v85.333h-85.333v-85.333h-128c-47.061 0-85.333-38.272-85.333-85.333v-597.333c0-47.061 38.272-85.333 85.333-85.333h597.333c47.061 0 85.333 38.272 85.333 85.333v597.333c0 47.061-38.272 85.333-85.333 85.333zM213.333 106.667v554.667h597.333v42.667l0.085-597.333h-597.419zM298.667 533.333v-85.333h426.667v128h-426.667z" />
<glyph unicode="&#xe983;" glyph-name="bx-calendar-x" d="M353.835 264.832l60.331-60.331 97.835 97.835 97.835-97.835 60.331 60.331-97.835 97.835 97.835 97.835-60.331 60.331-97.835-97.835-97.835 97.835-60.331-60.331 97.835-97.835zM810.667 789.333h-85.333v85.333h-85.333v-85.333h-256v85.333h-85.333v-85.333h-85.333c-47.061 0-85.333-38.272-85.333-85.333v-597.333c0-47.061 38.272-85.333 85.333-85.333h597.333c47.061 0 85.333 38.272 85.333 85.333v597.333c0 47.061-38.272 85.333-85.333 85.333zM810.752 106.667h-597.419v512h597.333l0.085-512z" />
<glyph unicode="&#xe984;" glyph-name="bx-camera" d="M512 618.667c-92.501 0-170.667-78.165-170.667-170.667s78.165-170.667 170.667-170.667 170.667 78.165 170.667 170.667c0 92.501-78.165 170.667-170.667 170.667zM512 362.667c-45.44 0-85.333 39.893-85.333 85.333s39.893 85.333 85.333 85.333 85.333-39.893 85.333-85.333-39.893-85.333-85.333-85.333zM853.333 746.667h-110.336l-115.499 115.499c-7.979 8.021-18.816 12.501-30.165 12.501h-170.667c-11.349 0-22.187-4.48-30.165-12.501l-115.499-115.499h-110.336c-47.061 0-85.333-38.272-85.333-85.333v-469.333c0-47.061 38.272-85.333 85.333-85.333h682.667c47.061 0 85.333 38.272 85.333 85.333v469.333c0 47.061-38.272 85.333-85.333 85.333zM170.667 192v469.333h128c11.349 0 22.187 4.48 30.165 12.501l115.499 115.499h135.339l115.499-115.499c7.979-8.021 18.816-12.501 30.165-12.501h128l0.085-469.333h-682.752z" />
<glyph unicode="&#xe985;" glyph-name="bx-camera-home" d="M773.333 874.667h-522.667c-44.117 0-80-35.883-80-80v-522.667c0-44.117 35.883-80 80-80h218.667v-85.333h-170.667v-85.333h426.667v85.333h-170.667v85.333h218.667c44.117 0 80 35.883 80 80v522.667c0 44.117-35.883 80-80 80zM768 277.333h-512v512h512v-512zM512 362.667c94.123 0 170.667 76.544 170.667 170.667s-76.544 170.667-170.667 170.667-170.667-76.544-170.667-170.667 76.544-170.667 170.667-170.667zM512 618.667c47.061 0 85.333-38.272 85.333-85.333s-38.272-85.333-85.333-85.333-85.333 38.272-85.333 85.333 38.272 85.333 85.333 85.333z" />
<glyph unicode="&#xe986;" glyph-name="bx-camera-movie" d="M768 490.667c0 40.917-29.013 75.136-67.456 83.371 15.36 25.643 24.789 55.296 24.789 87.296 0 94.123-76.544 170.667-170.667 170.667-64.725 0-120.363-36.565-149.333-89.771-28.971 53.205-84.608 89.771-149.333 89.771-94.123 0-170.667-76.544-170.667-170.667 0-38.485 13.312-73.685 34.859-102.229-21.035-15.573-34.859-40.363-34.859-68.437v-341.333c0-47.061 38.272-85.333 85.333-85.333h512c47.061 0 85.333 38.272 85.333 85.333v112.555l170.667-85.333v298.667l-170.667-85.333v100.779zM554.667 746.667c47.061 0 85.333-38.272 85.333-85.333s-38.272-85.333-85.333-85.333-85.333 38.272-85.333 85.333 38.272 85.333 85.333 85.333zM256 746.667c47.061 0 85.333-38.272 85.333-85.333s-38.272-85.333-85.333-85.333-85.333 38.272-85.333 85.333 38.272 85.333 85.333 85.333zM170.667 149.333v341.333h512l0.085-341.333h-512.085z" />
<glyph unicode="&#xe987;" glyph-name="bx-camera-off" d="M341.931 442.24c3.157-87.979 76.331-161.152 164.309-164.309l-164.309 164.309zM170.667 106.667h506.837l-85.333 85.333h-421.504v421.504l-79.189 79.189c-3.883-9.728-6.144-20.267-6.144-31.36v-469.333c0-47.061 38.272-85.333 85.333-85.333zM853.333 746.667h-110.336l-115.499 115.499c-7.979 8.021-18.816 12.501-30.165 12.501h-170.667c-11.307 0-22.187-4.48-30.165-12.501l-115.499-115.499h-7.339l-115.499 115.499-60.331-60.331 768-768 60.331 60.331-26.709 26.709c23.467 15.104 39.211 41.131 39.211 71.125v469.333c0 47.061-38.272 85.333-85.333 85.333zM593.877 426.453l-103.424 103.467c6.955 1.963 14.123 3.413 21.547 3.413 45.44 0 85.333-39.893 85.333-85.333 0-7.424-1.408-14.592-3.456-21.547zM657.963 362.411c15.275 25.344 24.704 54.485 24.704 85.589 0 92.501-78.165 170.667-170.667 170.667-31.104 0-60.245-9.387-85.632-24.704l-88.704 88.704 106.667 106.667h135.339l115.499-115.499c7.979-8.021 18.816-12.501 30.165-12.501l128 0.043v-469.376h-25.003l-170.368 170.411z" />
<glyph unicode="&#xe988;" glyph-name="bx-capsule" d="M383.957 100.992c57.003 0 110.592 22.229 150.869 62.507l304.384 304.341c83.157 83.2 83.157 218.581-0.043 301.739-40.32 40.235-93.909 62.421-150.869 62.421s-110.549-22.187-150.784-62.464l-304.384-304.384c-83.115-83.157-83.157-218.496 0-301.739 40.277-40.235 93.867-62.421 150.827-62.421zM597.845 709.205c24.149 24.149 56.277 37.461 90.453 37.461 34.219 0 66.389-13.355 90.539-37.461 49.92-49.92 49.92-131.115 0.043-181.035l-123.435-123.392-180.992 181.035 123.392 123.392zM293.461 404.821l120.661 120.661 180.992-181.035-120.619-120.619c-48.341-48.341-132.693-48.299-181.035-0.043-49.877 49.92-49.877 131.115 0 181.035z" />
<glyph unicode="&#xe989;" glyph-name="bx-captions" d="M256 533.333v-170.667c0-47.061 38.272-85.333 85.333-85.333h128v85.333h-128v170.667h128v85.333h-128c-47.061 0-85.333-38.272-85.333-85.333zM554.667 533.333v-170.667c0-47.061 38.272-85.333 85.333-85.333h128v85.333h-128v170.667h128v85.333h-128c-47.061 0-85.333-38.272-85.333-85.333zM853.333 789.333h-682.667c-47.061 0-85.333-38.272-85.333-85.333v-512c0-47.061 38.272-85.333 85.333-85.333h682.667c47.061 0 85.333 38.272 85.333 85.333v512c0 47.061-38.272 85.333-85.333 85.333zM170.667 192v512h682.667l0.085-512h-682.752z" />
<glyph unicode="&#xe98a;" glyph-name="bx-car" d="M886.272 526.677l-58.368 175.147c-17.451 52.352-66.219 87.509-121.387 87.509h-389.035c-55.168 0-103.936-35.157-121.387-87.509l-58.368-175.147c-30.72-12.928-52.395-43.307-52.395-78.677v-213.333c0-32.128 18.048-59.819 44.331-74.368-0.555-2.816-1.664-5.376-1.664-8.32v-87.979c0-23.595 19.072-42.667 42.667-42.667h42.667c23.595 0 42.667 19.072 42.667 42.667v85.333h512v-85.333c0-23.595 19.072-42.667 42.667-42.667h42.667c23.595 0 42.667 19.072 42.667 42.667v87.979c0 2.944-1.109 5.547-1.664 8.32 26.283 14.549 44.331 42.24 44.331 74.368v213.333c0 35.371-21.675 65.749-52.395 78.677zM170.667 234.667v213.333h682.667l0.085-213.333h-682.752zM317.483 704h388.992c18.389 0 34.688-11.691 40.491-29.184l47.189-141.483h-564.309l47.147 141.483c5.845 17.493 22.144 29.184 40.491 29.184zM341.333 341.333c0-35.346-28.654-64-64-64s-64 28.654-64 64c0 35.346 28.654 64 64 64s64-28.654 64-64zM810.667 341.333c0-35.346-28.654-64-64-64s-64 28.654-64 64c0 35.346 28.654 64 64 64s64-28.654 64-64z" />
<glyph unicode="&#xe98b;" glyph-name="bx-card" d="M767.957 234.667c47.061 0 85.333 38.272 85.333 85.333v426.667c0 47.061-38.272 85.333-85.333 85.333h-512c-47.061 0-85.333-38.272-85.333-85.333v-426.667c0-47.061 38.272-85.333 85.333-85.333h512zM255.957 746.667h512l0.085-426.667h-512.085v426.667zM170.624 149.333h682.667v-85.333h-682.667z" />
<glyph unicode="&#xe98c;" glyph-name="bx-caret-down" d="M511.915 234.667l298.667 341.333h-597.333z" />
<glyph unicode="&#xe98d;" glyph-name="bx-caret-down-circle" d="M512 277.333l213.333 256h-426.667zM512 874.667c-235.264 0-426.667-191.403-426.667-426.667s191.403-426.667 426.667-426.667 426.667 191.403 426.667 426.667-191.403 426.667-426.667 426.667zM512 106.667c-188.203 0-341.333 153.131-341.333 341.333s153.131 341.333 341.333 341.333 341.333-153.131 341.333-341.333-153.131-341.333-341.333-341.333z" />
<glyph unicode="&#xe98e;" glyph-name="bx-caret-down-square" d="M512 277.333l213.333 256h-426.667zM810.667 832h-597.333c-47.061 0-85.333-38.272-85.333-85.333v-597.333c0-47.061 38.272-85.333 85.333-85.333h597.333c47.061 0 85.333 38.272 85.333 85.333v597.333c0 47.061-38.272 85.333-85.333 85.333zM213.333 149.333v597.333h597.333l0.085-597.333h-597.419z" />
<glyph unicode="&#xe98f;" glyph-name="bx-caret-left" d="M640 149.333v597.333l-341.333-298.667z" />
<glyph unicode="&#xe990;" glyph-name="bx-caret-left-circle" d="M597.333 234.667v426.667l-256-213.333zM512 874.667c-235.264 0-426.667-191.403-426.667-426.667s191.403-426.667 426.667-426.667 426.667 191.403 426.667 426.667-191.403 426.667-426.667 426.667zM512 106.667c-188.203 0-341.333 153.131-341.333 341.333s153.131 341.333 341.333 341.333 341.333-153.131 341.333-341.333-153.131-341.333-341.333-341.333z" />
<glyph unicode="&#xe991;" glyph-name="bx-caret-left-square" d="M597.333 234.667v426.667l-256-213.333zM810.667 832h-597.333c-47.061 0-85.333-38.272-85.333-85.333v-597.333c0-47.061 38.272-85.333 85.333-85.333h597.333c47.061 0 85.333 38.272 85.333 85.333v597.333c0 47.061-38.272 85.333-85.333 85.333zM213.333 149.333v597.333h597.333l0.085-597.333h-597.419z" />
<glyph unicode="&#xe992;" glyph-name="bx-caret-right" d="M384 149.333l341.333 298.667-341.333 298.667z" />
<glyph unicode="&#xe993;" glyph-name="bx-caret-right-circle" d="M426.667 234.667l256 213.333-256 213.333zM512 874.667c-235.264 0-426.667-191.403-426.667-426.667s191.403-426.667 426.667-426.667 426.667 191.403 426.667 426.667-191.403 426.667-426.667 426.667zM512 106.667c-188.203 0-341.333 153.131-341.333 341.333s153.131 341.333 341.333 341.333 341.333-153.131 341.333-341.333-153.131-341.333-341.333-341.333z" />
<glyph unicode="&#xe994;" glyph-name="bx-caret-right-square" d="M426.667 234.667l256 213.333-256 213.333zM810.667 832h-597.333c-47.061 0-85.333-38.272-85.333-85.333v-597.333c0-47.061 38.272-85.333 85.333-85.333h597.333c47.061 0 85.333 38.272 85.333 85.333v597.333c0 47.061-38.272 85.333-85.333 85.333zM213.333 149.333v597.333h597.333l0.085-597.333h-597.419z" />
<glyph unicode="&#xe995;" glyph-name="bx-caret-up" d="M213.333 320h597.333l-298.667 341.333z" />
<glyph unicode="&#xe996;" glyph-name="bx-caret-up-circle" d="M298.667 362.667h426.667l-213.333 256zM512 874.667c-235.264 0-426.667-191.403-426.667-426.667s191.403-426.667 426.667-426.667c235.264 0 426.667 191.403 426.667 426.667s-191.403 426.667-426.667 426.667zM512 106.667c-188.203 0-341.333 153.131-341.333 341.333s153.131 341.333 341.333 341.333 341.333-153.131 341.333-341.333-153.131-341.333-341.333-341.333z" />
<glyph unicode="&#xe997;" glyph-name="bx-caret-up-square" d="M298.667 362.667h426.667l-213.333 256zM810.667 832h-597.333c-47.061 0-85.333-38.272-85.333-85.333v-597.333c0-47.061 38.272-85.333 85.333-85.333h597.333c47.061 0 85.333 38.272 85.333 85.333v597.333c0 47.061-38.272 85.333-85.333 85.333zM213.333 149.333v597.333h597.333l0.085-597.333h-597.419z" />
<glyph unicode="&#xe998;" glyph-name="bx-carousel" d="M170.667 149.333h85.333c0-47.061 38.272-85.333 85.333-85.333h341.333c47.061 0 85.333 38.272 85.333 85.333h85.333c47.061 0 85.333 38.272 85.333 85.333v426.667c0 47.061-38.272 85.333-85.333 85.333h-85.333c0 47.061-38.272 85.333-85.333 85.333h-341.333c-47.061 0-85.333-38.272-85.333-85.333h-85.333c-47.061 0-85.333-38.272-85.333-85.333v-426.667c0-47.061 38.272-85.333 85.333-85.333zM853.333 661.333v-426.667h-85.333v426.667h85.333zM341.333 746.667h341.333l0.043-597.333h-341.376v597.333zM170.667 661.333h85.333v-426.667h-85.333v426.667z" />
<glyph unicode="&#xe999;" glyph-name="bx-cart" d="M931.072 642.944c-7.979 11.52-21.077 18.389-35.072 18.389h-583.125l-49.237 118.187c-13.312 31.915-44.203 52.48-78.763 52.48h-99.541v-85.333h99.541l202.411-485.76c6.613-15.872 22.144-26.24 39.381-26.24h341.333c17.792 0 33.707 11.051 39.979 27.648l128 341.333c4.907 13.141 3.072 27.819-4.907 39.296zM738.432 320h-283.307l-106.667 256h485.973l-96-256zM512 128c0-35.346-28.654-64-64-64s-64 28.654-64 64c0 35.346 28.654 64 64 64s64-28.654 64-64zM810.667 128c0-35.346-28.654-64-64-64s-64 28.654-64 64c0 35.346 28.654 64 64 64s64-28.654 64-64z" />
<glyph unicode="&#xe99a;" glyph-name="bx-cart-alt" d="M896 789.333h-810.667v-85.333h98.133l140.032-385.067c18.304-50.389 66.688-84.267 120.277-84.267h366.891v85.333h-366.891c-17.877 0-34.005 11.307-40.107 28.075l-20.821 57.259h395.648c37.973 0 71.68 25.515 82.048 61.909l76.501 267.691c3.669 12.885 1.067 26.709-6.955 37.419-8.107 10.709-20.736 16.981-34.091 16.981zM778.496 490.667h-426.667l-77.568 213.333h565.205l-60.971-213.333zM512 128c0-35.346-28.654-64-64-64s-64 28.654-64 64c0 35.346 28.654 64 64 64s64-28.654 64-64zM768 128c0-35.346-28.654-64-64-64s-64 28.654-64 64c0 35.346 28.654 64 64 64s64-28.654 64-64z" />
</font>
</defs>
</svg>
